TiVo Community
TiVo Community
TiVo Community
Go Back   TiVo Community > Main TiVo Forums > TiVo Home Media Features & TiVoToGo
TiVo Community
Reply
Forum Jump
 
Thread Tools
Old 05-11-2009, 09:40 AM   #541
kupe
Viva 'la Tivolution!
 
Join Date: Apr 2003
Posts: 309
Quote:
Originally Posted by Yoav View Post
Sounds like a film that is mis-identified as 'streamable as-is' by newer versions of streambaby. Can you open up a Terminal.app and run something like /Applications/pyTivoX.app/Contents/Resources/ffmpeg -i (full path to your movie file)So we can see what it's being identified as?
Glad to- here it is:

Code:
FFmpeg version SVN-r18731, Copyright (c) 2000-2009 Fabrice Bellard, et al.
  configuration: --shlibdir=@executable_path --arch=i386 --cpu=i686 --disable-static --enable-shared --enable-pthreads --enable-gpl --enable-libmp3lame --enable-libfaac --enable-nonfree --enable-libfaad --enable-libx264 --extra-cflags='-I/Users/yoav/src/lame/include -I/Users/yoav/src/faad2-2.7/include -I/Users/yoav/src/faac-1.28/include -I/Users/yoav/src/x264' --extra-ldflags='-L/Users/yoav/src/lame/libmp3lame/.libs -L/Users/yoav/src/faad2-2.7/libfaad/.libs -L/Users/yoav/src/faac-1.28/libfaac/.libs -L/Users/yoav/src/x264/'
  libavutil     50. 3. 0 / 50. 3. 0
  libavcodec    52.28. 0 / 52.28. 0
  libavformat   52.32. 0 / 52.32. 0
  libavdevice   52. 2. 0 / 52. 2. 0
  libswscale     0. 7. 1 /  0. 7. 1
  built on May  2 2009 14:48:06, gcc: 4.0.1 (Apple Inc. build 5484)

Seems stream 0 codec frame rate differs from container frame rate: 47.95 (5994/125) -> 23.98 (24000/1001)
Input #0, mov,mp4,m4a,3gp,3g2,mj2, from '/Users/dave/Desktop/Tivo Shares/Star Trek.mov':
  Duration: 00:00:37.08, start: 0.000000, bitrate: 9466 kb/s
    Stream #0.0(eng): Video: h264, yuv420p, 1920x800, 23.98 tbr, 23.98 tbn, 47.95 tbc
    Stream #0.1(eng): Audio: aac, 44100 Hz, stereo, s16
    Stream #0.2(eng): Data: tmcd / 0x64636D74
At least one output file must be specified
Quote:
Originally Posted by Yoav View Post
In the meanwhile, it should still work in streambaby as long as you select a quality other than 'same'.
That does indeed fix the problem. Thanks! FWIW, here's what I'm seeing. On any .MOV files, if under Quality, any bitrate number follows the word "Same", then that file won't stream if left on Same. However on some of my .MOV files, there is no bitrate number displayed after Same, and those files DO stream just fine (without having to select something other than Same).


Quote:
Originally Posted by Yoav View Post
The version of streambaby you have will first use the filename when compiling the list of movies (which is why it works initially), but as soon as it looks in the file, it will trust the 'metadata' in the file for the actual name of the film. It sounds to me like the metadata in your movie is incorrectly set to use the running time as the title. a tool like 'MetaX' can help you mess with the metadata in a movie without re-encoding it.
Interesting. This particular file was encoded by Handbrake, as opposed to my others that were encoded with Toast. I'll take a look at MetaX.

Thanks as always Yoav!

Kupe
kupe is offline   Reply With Quote
Old 05-11-2009, 10:30 AM   #542
kupe
Viva 'la Tivolution!
 
Join Date: Apr 2003
Posts: 309
Quote:
Originally Posted by kupe View Post
Interesting. This particular file was encoded by Handbrake, as opposed to my others that were encoded with Toast. I'll take a look at MetaX.
Oooops- I stand corrected. The file was encoded with Toast- not Handbrake. And as I try other Toast-encoded movies, they too are getting renamed by their running time in Streambaby.

So, I went ahead and downloaded MetaX- very cool app! Here's the interesting thing. The title field is correct for all the movies. No need to change any of them. The problem seems to be the fact that the running time is in the metadata "short description" field. This appears to be what Streambaby is relying on. When I edit that field and change it to blank, Streambaby again displays the correct title.

So, that brings me to this question- Is that really the desired behavior for Streambaby? i.e. to use the Short Description metadata over the Title metadata? In any case, this appears to be a change from earlier versions of Streambaby, where I did not have this renaming issue.

Meanwhile, is this a known issue with Toast? i.e. incorrectly putting running time in the Short Description field (I'm running Toast Titanium 9.0.4)

Ugggh- it looks like I'll need to edit the Metadata in all my Toast-encoded movies, unless perhaps this issues gets addressed on the Streambaby end.

Kupe
kupe is offline   Reply With Quote
Old 05-11-2009, 12:28 PM   #543
Yoav
Registered User
 
Join Date: Jan 2007
Posts: 1,048
Quote:
Originally Posted by kupe View Post
That does indeed fix the problem. Thanks! FWIW, here's what I'm seeing. On any .MOV files, if under Quality, any bitrate number follows the word "Same", then that file won't stream if left on Same. However on some of my .MOV files, there is no bitrate number displayed after Same, and those files DO stream just fine (without having to select something other than Same).
You should probably repeat this info in the streambaby thread. The problem is that the .mov file you have is not playable by the tivo, and needs to be transcoded. However, streambaby thinks that it *is* playable, so streams it as-is. Selecting a quality other than same forces a transcode... The two 'weirdnesses' in the file is the fact that there's a third data stream in there, and that it seems to be 1920x800 at 24fps (normally 24 fps on TV is reserved for 1024x720)... I'm not aware if those are 'deal-breakers' for tivo though (it's not yet 100% clear what tivo accepts as a valid mp4 stream).

Quote:
Interesting. This particular file was encoded by Handbrake, as opposed to my others that were encoded with Toast. I'll take a look at MetaX.
Well, on one hand, Toast is clearly generating bad metadata (sorry, but a short description of a film shouldn't be its runtime). On the other, I don't know why streambaby prefers the short over the title... possibly short is expected to be the title without (year) and other additional info? Again, you'll need to bring it up in the streambaby thread. It's a pretty simple change to force it to take one over the other, I'm just not comfortable doing it because I don't understand the decision...
__________________
Don't pay for Tivo Desktop / Roxio on the mac:
To view links or images in signatures your post count must be 10 or greater. You currently have 0 posts.
and
To view links or images in signatures your post count must be 10 or greater. You currently have 0 posts.
.

To view links or images in signatures your post count must be 10 or greater. You currently have 0 posts.
Yoav is offline   Reply With Quote
Old 05-11-2009, 01:40 PM   #544
kupe
Viva 'la Tivolution!
 
Join Date: Apr 2003
Posts: 309
Quote:
Originally Posted by Yoav View Post
You should probably repeat this info in the streambaby thread.
Thanks Yoav- good suggestion. I haven't been following that thread, but I see it's also quite active.

Kupe
kupe is offline   Reply With Quote
Old 05-11-2009, 07:19 PM   #545
TadK
Registered User
 
Join Date: Oct 2007
Posts: 19
Is there a method to sort a folder contents by file name rather than date created? Or some way of switching between name and date created?

I have a few folders with several movies in each. They appear to be organized by creation date (as they are in the order that I drug them over to my external drive). Is there a solution for this?

Thanks much.
Tad

TiVo S2 set top box, ethernet,
TadK is offline   Reply With Quote
Old 05-11-2009, 08:04 PM   #546
kupe
Viva 'la Tivolution!
 
Join Date: Apr 2003
Posts: 309
Quote:
Originally Posted by Yoav View Post
On the other, I don't know why streambaby prefers the short over the title...
Hi Yoav-

Well that was easy! Baring any objections from other users, sounds like Keary is going to swap the Streambaby priorities so that Title rules over Short Description.

Thanks again!

Kupe
kupe is offline   Reply With Quote
Old 05-11-2009, 08:11 PM   #547
Yoav
Registered User
 
Join Date: Jan 2007
Posts: 1,048
Quote:
Originally Posted by TadK View Post
Is there a method to sort a folder contents by file name rather than date created? Or some way of switching between name and date created?

I have a few folders with several movies in each. They appear to be organized by creation date (as they are in the order that I drug them over to my external drive). Is there a solution for this?

Thanks much.
Tad

TiVo S2 set top box, ethernet,
Based on the last line there, I'm going to assume you mean in pyTivo and not streambaby. According to the discussion at http://pytivo.krkeegan.com/sorting-t194.html it sounds like you should be able to achieve that by hitting '1' on the remote while browsing the directory. Is that not the case?

edit: It looks like that's true only for the toplevel in each share. For subdirs there's a force_alpha flag that needs to be specified in the config file, and that's per share... hmmm...

Well, the 'quick fix' for now is to edit '<user>/Library/Application Support/pyTivoX/pyTivo.conf' and add 'force_alpha=True' after each line that says 'type=video' ...

I'm more inclined to make a global setting to let you control that instead of a per-share (as it is already tending towards confusing)... Anyways I'll think about it for a bit...
__________________
Don't pay for Tivo Desktop / Roxio on the mac:
To view links or images in signatures your post count must be 10 or greater. You currently have 0 posts.
and
To view links or images in signatures your post count must be 10 or greater. You currently have 0 posts.
.

To view links or images in signatures your post count must be 10 or greater. You currently have 0 posts.

Last edited by Yoav : 05-11-2009 at 08:23 PM.
Yoav is offline   Reply With Quote
Old 05-12-2009, 06:42 PM   #548
kupe
Viva 'la Tivolution!
 
Join Date: Apr 2003
Posts: 309
Hi Yoav-

Ran into a new issue today running PyTivoX 1.2. I have a large collection of .tivo files on my Mac. Today I tried transferring some of them from my Mac to my Tivos, but I kept getting an error message on the Tivos to the effect of "An error occurred when trying to Transfer". This occurred with both my Tivo HD and my Series 2.

Note that the same files transfer fine when going directly from Tivo to Tivo.

Anyhow, I reverted just now back to PyTivoX 1.1b24 and my .tivo files transfer perfectly again from my Mac to Tivo. Seems to be a 1.2 issue. Do you think we can get .tivo transfers working again in 1.2?

Thanks!

Kupe
kupe is offline   Reply With Quote
Old 05-12-2009, 07:00 PM   #549
Yoav
Registered User
 
Join Date: Jan 2007
Posts: 1,048
Quote:
Originally Posted by kupe View Post
Hi Yoav-

Ran into a new issue today running PyTivoX 1.2. I have a large collection of .tivo files on my Mac. Today I tried transferring some of them from my Mac to my Tivos, but I kept getting an error message on the Tivos to the effect of "An error occurred when trying to Transfer". This occurred with both my Tivo HD and my Series 2.

Note that the same files transfer fine when going directly from Tivo to Tivo.

Anyhow, I reverted just now back to PyTivoX 1.1b24 and my .tivo files transfer perfectly again from my Mac to Tivo. Seems to be a 1.2 issue. Do you think we can get .tivo transfers working again in 1.2?

Thanks!

Kupe
Can I get you to try and make it fail again, and then attach the contents of <user>/Library/Logs/pyTivoX/pytivo.log ? From the description I really can't tell what went wrong. 1.2 is using newer pytivo code from wmcbrine, and a newer ffmpeg, so either of those could have caused the issue...

As an aside: I *hate hate hate* .tivo files. In the future, I recommend you never keep those around. Convert them to the mpeg-2 that they should be.
__________________
Don't pay for Tivo Desktop / Roxio on the mac:
To view links or images in signatures your post count must be 10 or greater. You currently have 0 posts.
and
To view links or images in signatures your post count must be 10 or greater. You currently have 0 posts.
.

To view links or images in signatures your post count must be 10 or greater. You currently have 0 posts.
Yoav is offline   Reply With Quote
Old 05-12-2009, 09:17 PM   #550
bedelman
Call me Bob
 
bedelman's Avatar
 
Join Date: Feb 2001
Location: Crystal Lake, IL, USA
Posts: 3,562
Quote:
Originally Posted by Yoav View Post
As an aside: I *hate hate hate* .tivo files. In the future, I recommend you never keep those around. Convert them to the mpeg-2 that they should be.
I disagree -- partly because .tivo files have all that juicy metadata in them

But, rather than using pyTiVox, I just use the capability that's found in the TiVo Desktop for Mac OSX preference pane (you have to expose the hidden videos tab by holding down the apple/command key when launching it -- there is a way to modify the plist file to make it permanent if you wish)

I have pyTiVoX working from one directory and TiVo Desktop for Mac OSX working from a different one -- and other than having two entries for the computer in my Now Playing List (named differently), they get along just fine with one another.

- Bob
__________________
Bob Edelman

You can never have too many TiVo's (7) or wireless routers (5) -- all in one residence!
bedelman is offline   Reply With Quote
Old 05-13-2009, 01:24 PM   #551
kupe
Viva 'la Tivolution!
 
Join Date: Apr 2003
Posts: 309
Quote:
Originally Posted by Yoav View Post
Can I get you to try and make it fail again, and then attach the contents of <user>/Library/Logs/pyTivoX/pytivo.log ? From the description I really can't tell what went wrong. 1.2 is using newer pytivo code from wmcbrine, and a newer ffmpeg, so either of those could have caused the issue...
Hi Yoav-

No problem. I reinstalled 1.2 and immediately got the same error and couldn't transfer any .tivo file from my Mac to a Tivo. In this case an episode of Rick Steve's Europe:

Code:
INFO:pyTivo:10.0.1.7 [13/May/2009 14:13:06] "GET /TiVoConnect?Command=QueryFormats&SourceFormat=video%2Fx-tivo-mpeg HTTP/1.1" 200 -
DEBUG:root:starting ffmpeg, will wait 10 seconds for it to complete
DEBUG:root:ffmpeg output=FFmpeg version SVN-r18731, Copyright (c) 2000-2009 Fabrice Bellard, et al.
  configuration: --shlibdir=@executable_path --arch=i386 --cpu=i686 --disable-static --enable-shared --enable-pthreads --enable-gpl --enable-libmp3lame --enable-libfaac --enable-nonfree --enable-libfaad --enable-libx264 --extra-cflags='-I/Users/yoav/src/lame/include -I/Users/yoav/src/faad2-2.7/include -I/Users/yoav/src/faac-1.28/include -I/Users/yoav/src/x264' --extra-ldflags='-L/Users/yoav/src/lame/libmp3lame/.libs -L/Users/yoav/src/faad2-2.7/libfaad/.libs -L/Users/yoav/src/faac-1.28/libfaac/.libs -L/Users/yoav/src/x264/'
  libavutil     50. 3. 0 / 50. 3. 0
  libavcodec    52.28. 0 / 52.28. 0
  libavformat   52.32. 0 / 52.32. 0
  libavdevice   52. 2. 0 / 52. 2. 0
  libswscale     0. 7. 1 /  0. 7. 1
  built on May  2 2009 14:48:06, gcc: 4.0.1 (Apple Inc. build 5484)

Seems stream 0 codec frame rate differs from container frame rate: 59.94 (60000/1001) -> 29.97 (30000/1001)
Input #0, mpeg, from '/Users/dave/TiVoShows/Rick_Steves'_Europe_Denmark_Beyond_Copenhagen_WPBA_1231525800.TiVo':
  Duration: 00:30:02.23, start: 0.602700, bitrate: 2956 kb/s
    Stream #0.0[0x1e0]: Video: mpeg2video, yuv420p, 528x480 [PAR 40:33 DAR 4:3], 15000 kb/s, 29.97 tbr, 90k tbn, 59.94 tbc
    Stream #0.1[0x1bd]: Audio: ac3, 44100 Hz, 6 channels (FL|FR), s16, 6350 kb/s
At least one output file must be specified

DEBUG:pyTivo.video.transcode:aFreq=44100; vFps=29.97; container=mpeg; kbps=2956; mapAudio=[('0.1', '[0x1bd]')]; vHeight=480; vCodec=mpeg2video; Supported=True; millisecs=1802230; par=None; aKbps=6350; par2=1.21212121212; par1=40:33; mapVideo=0.0; vWidth=528; dar1=4:3; aCodec=ac3
DEBUG:root:CACHE HIT! /Users/dave/TiVoShows/Rick_Steves'_Europe_Denmark_Beyond_Copenhagen_WPBA_1231525800.TiVo
DEBUG:root:CACHE HIT! /Users/dave/TiVoShows/Rick_Steves'_Europe_Denmark_Beyond_Copenhagen_WPBA_1231525800.TiVo
DEBUG:pyTivo.video.transcode:TRANSCODE=YES, 6350 kbps exceeds max audio bitrate, /Users/dave/TiVoShows/Rick_Steves'_Europe_Denmark_Beyond_Copenhagen_WPBA_1231525800.TiVo
DEBUG:root:CACHE HIT! /Users/dave/TiVoShows/Rick_Steves'_Europe_Denmark_Beyond_Copenhagen_WPBA_1231525800.TiVo
DEBUG:root:CACHE HIT! /Users/dave/TiVoShows/Rick_Steves'_Europe_Denmark_Beyond_Copenhagen_WPBA_1231525800.TiVo
DEBUG:root:CACHE HIT! /Users/dave/TiVoShows/Rick_Steves'_Europe_Denmark_Beyond_Copenhagen_WPBA_1231525800.TiVo
DEBUG:root:CACHE HIT! /Users/dave/TiVoShows/Rick_Steves'_Europe_Denmark_Beyond_Copenhagen_WPBA_1231525800.TiVo
DEBUG:pyTivo.video.transcode:TRANSCODE=YES, 6350 kbps exceeds max audio bitrate, /Users/dave/TiVoShows/Rick_Steves'_Europe_Denmark_Beyond_Copenhagen_WPBA_1231525800.TiVo
DEBUG:root:CACHE HIT! /Users/dave/TiVoShows/Rick_Steves'_Europe_Denmark_Beyond_Copenhagen_WPBA_1231525800.TiVo
DEBUG:root:CACHE HIT! /Users/dave/TiVoShows/Rick_Steves'_Europe_Denmark_Beyond_Copenhagen_WPBA_1231525800.TiVo
DEBUG:root:CACHE HIT! /Users/dave/TiVoShows/Rick_Steves'_Europe_Denmark_Beyond_Copenhagen_WPBA_1231525800.TiVo
DEBUG:root:CACHE HIT! /Users/dave/TiVoShows/Rick_Steves'_Europe_Denmark_Beyond_Copenhagen_WPBA_1231525800.TiVo
DEBUG:root:tsn: 240000090205948
DEBUG:root:aspect169: False
DEBUG:root:optres: False
DEBUG:pyTivo.video.transcode:File=/Users/dave/TiVoShows/Rick_Steves'_Europe_Denmark_Beyond_Copenhagen_WPBA_1231525800.TiVo vCodec=mpeg2video vWidth=528 vHeight=480 vFps=29.97 millisecs=1802230 ratio=110 rheight=10 rwidth=11 TIVO_HEIGHT=480 TIVO_WIDTH=544
DEBUG:pyTivo.video.transcode:File is within 4:3 list.
DEBUG:root:CACHE HIT! /Users/dave/TiVoShows/Rick_Steves'_Europe_Denmark_Beyond_Copenhagen_WPBA_1231525800.TiVo
DEBUG:root:CACHE HIT! /Users/dave/TiVoShows/Rick_Steves'_Europe_Denmark_Beyond_Copenhagen_WPBA_1231525800.TiVo
DEBUG:root:CACHE HIT! /Users/dave/TiVoShows/Rick_Steves'_Europe_Denmark_Beyond_Copenhagen_WPBA_1231525800.TiVo
INFO:pyTivo:10.0.1.7 [13/May/2009 14:13:06] "GET /TiVoConnect?Command=QueryContainer&Container=My%20Share%202&SortOrder=!CaptureDate&ItemCount=1&AnchorItem=%2FMy%2520Share%25202%2FRick_Steves%2527_Europe_Denmark_Beyond_Copenhagen_WPBA_1231525800.TiVo&AnchorOffset=-1&Filter=x-tivo-container%2Ftivo-videos,x-tivo-container%2Ffolder,video%2Fx-tivo-mpeg,video%2F* HTTP/1.1" 200 -
DEBUG:root:CACHE HIT! /Users/dave/TiVoShows/Rick_Steves'_Europe_Denmark_Beyond_Copenhagen_WPBA_1231525800.TiVo
DEBUG:root:CACHE HIT! /Users/dave/TiVoShows/Rick_Steves'_Europe_Denmark_Beyond_Copenhagen_WPBA_1231525800.TiVo
DEBUG:root:CACHE HIT! /Users/dave/TiVoShows/Rick_Steves'_Europe_Denmark_Beyond_Copenhagen_WPBA_1231525800.TiVo
DEBUG:pyTivo.video.transcode:TRANSCODE=YES, 6350 kbps exceeds max audio bitrate, /Users/dave/TiVoShows/Rick_Steves'_Europe_Denmark_Beyond_Copenhagen_WPBA_1231525800.TiVo
DEBUG:root:CACHE HIT! /Users/dave/TiVoShows/Rick_Steves'_Europe_Denmark_Beyond_Copenhagen_WPBA_1231525800.TiVo
DEBUG:root:CACHE HIT! /Users/dave/TiVoShows/Rick_Steves'_Europe_Denmark_Beyond_Copenhagen_WPBA_1231525800.TiVo
DEBUG:root:CACHE HIT! /Users/dave/TiVoShows/Rick_Steves'_Europe_Denmark_Beyond_Copenhagen_WPBA_1231525800.TiVo
DEBUG:root:CACHE HIT! /Users/dave/TiVoShows/Rick_Steves'_Europe_Denmark_Beyond_Copenhagen_WPBA_1231525800.TiVo
DEBUG:pyTivo.video.transcode:TRANSCODE=YES, 6350 kbps exceeds max audio bitrate, /Users/dave/TiVoShows/Rick_Steves'_Europe_Denmark_Beyond_Copenhagen_WPBA_1231525800.TiVo
DEBUG:root:CACHE HIT! /Users/dave/TiVoShows/Rick_Steves'_Europe_Denmark_Beyond_Copenhagen_WPBA_1231525800.TiVo
DEBUG:root:CACHE HIT! /Users/dave/TiVoShows/Rick_Steves'_Europe_Denmark_Beyond_Copenhagen_WPBA_1231525800.TiVo
DEBUG:root:CACHE HIT! /Users/dave/TiVoShows/Rick_Steves'_Europe_Denmark_Beyond_Copenhagen_WPBA_1231525800.TiVo
DEBUG:root:CACHE HIT! /Users/dave/TiVoShows/Rick_Steves'_Europe_Denmark_Beyond_Copenhagen_WPBA_1231525800.TiVo
DEBUG:root:tsn: 240000090205948
DEBUG:root:aspect169: False
DEBUG:root:optres: False
DEBUG:pyTivo.video.transcode:File=/Users/dave/TiVoShows/Rick_Steves'_Europe_Denmark_Beyond_Copenhagen_WPBA_1231525800.TiVo vCodec=mpeg2video vWidth=528 vHeight=480 vFps=29.97 millisecs=1802230 ratio=110 rheight=10 rwidth=11 TIVO_HEIGHT=480 TIVO_WIDTH=544
DEBUG:pyTivo.video.transcode:File is within 4:3 list.
DEBUG:root:CACHE HIT! /Users/dave/TiVoShows/Rick_Steves'_Europe_Denmark_Beyond_Copenhagen_WPBA_1231525800.TiVo
DEBUG:root:CACHE HIT! /Users/dave/TiVoShows/Rick_Steves'_Europe_Denmark_Beyond_Copenhagen_WPBA_1231525800.TiVo
DEBUG:root:CACHE HIT! /Users/dave/TiVoShows/Rick_Steves'_Europe_Denmark_Beyond_Copenhagen_WPBA_1231525800.TiVo
INFO:pyTivo:10.0.1.7 [13/May/2009 14:13:07] "GET /TiVoConnect?Command=TVBusQuery&Container=My%20Share%202&File=%2FRick_Steves'_Europe_Denmark_Beyond_Copenhagen_WPBA_1231525800.TiVo HTTP/1.1" 200 -
INFO:pyTivo:10.0.1.7 [13/May/2009 14:13:21] "GET /TiVoConnect?Command=QueryFormats&SourceFormat=video%2Fx-tivo-mpeg HTTP/1.1" 200 -
DEBUG:root:CACHE HIT! /Users/dave/TiVoShows/Rick_Steves'_Europe_Denmark_Beyond_Copenhagen_WPBA_1231525800.TiVo
DEBUG:root:CACHE HIT! /Users/dave/TiVoShows/Rick_Steves'_Europe_Denmark_Beyond_Copenhagen_WPBA_1231525800.TiVo
DEBUG:root:CACHE HIT! /Users/dave/TiVoShows/Rick_Steves'_Europe_Denmark_Beyond_Copenhagen_WPBA_1231525800.TiVo
DEBUG:pyTivo.video.transcode:TRANSCODE=YES, 6350 kbps exceeds max audio bitrate, /Users/dave/TiVoShows/Rick_Steves'_Europe_Denmark_Beyond_Copenhagen_WPBA_1231525800.TiVo
DEBUG:root:CACHE HIT! /Users/dave/TiVoShows/Rick_Steves'_Europe_Denmark_Beyond_Copenhagen_WPBA_1231525800.TiVo
DEBUG:root:CACHE HIT! /Users/dave/TiVoShows/Rick_Steves'_Europe_Denmark_Beyond_Copenhagen_WPBA_1231525800.TiVo
DEBUG:root:CACHE HIT! /Users/dave/TiVoShows/Rick_Steves'_Europe_Denmark_Beyond_Copenhagen_WPBA_1231525800.TiVo
DEBUG:root:CACHE HIT! /Users/dave/TiVoShows/Rick_Steves'_Europe_Denmark_Beyond_Copenhagen_WPBA_1231525800.TiVo
DEBUG:pyTivo.video.transcode:TRANSCODE=YES, 6350 kbps exceeds max audio bitrate, /Users/dave/TiVoShows/Rick_Steves'_Europe_Denmark_Beyond_Copenhagen_WPBA_1231525800.TiVo
DEBUG:root:CACHE HIT! /Users/dave/TiVoShows/Rick_Steves'_Europe_Denmark_Beyond_Copenhagen_WPBA_1231525800.TiVo
DEBUG:root:CACHE HIT! /Users/dave/TiVoShows/Rick_Steves'_Europe_Denmark_Beyond_Copenhagen_WPBA_1231525800.TiVo
DEBUG:root:CACHE HIT! /Users/dave/TiVoShows/Rick_Steves'_Europe_Denmark_Beyond_Copenhagen_WPBA_1231525800.TiVo
DEBUG:root:CACHE HIT! /Users/dave/TiVoShows/Rick_Steves'_Europe_Denmark_Beyond_Copenhagen_WPBA_1231525800.TiVo
DEBUG:root:tsn: 240000090205948
DEBUG:root:aspect169: False
DEBUG:root:optres: False
DEBUG:pyTivo.video.transcode:File=/Users/dave/TiVoShows/Rick_Steves'_Europe_Denmark_Beyond_Copenhagen_WPBA_1231525800.TiVo vCodec=mpeg2video vWidth=528 vHeight=480 vFps=29.97 millisecs=1802230 ratio=110 rheight=10 rwidth=11 TIVO_HEIGHT=480 TIVO_WIDTH=544
DEBUG:pyTivo.video.transcode:File is within 4:3 list.
DEBUG:root:CACHE HIT! /Users/dave/TiVoShows/Rick_Steves'_Europe_Denmark_Beyond_Copenhagen_WPBA_1231525800.TiVo
DEBUG:root:CACHE HIT! /Users/dave/TiVoShows/Rick_Steves'_Europe_Denmark_Beyond_Copenhagen_WPBA_1231525800.TiVo
DEBUG:root:CACHE HIT! /Users/dave/TiVoShows/Rick_Steves'_Europe_Denmark_Beyond_Copenhagen_WPBA_1231525800.TiVo
INFO:pyTivo:10.0.1.7 [13/May/2009 14:13:21] "GET /TiVoConnect?Command=QueryContainer&Container=My%20Share%202&SortOrder=!CaptureDate&ItemCount=1&AnchorItem=%2FMy%2520Share%25202%2FRick_Steves%2527_Europe_Denmark_Beyond_Copenhagen_WPBA_1231525800.TiVo&AnchorOffset=-1&Filter=x-tivo-container%2Ftivo-videos,x-tivo-container%2Ffolder,video%2Fx-tivo-mpeg,video%2F* HTTP/1.1" 200 -
DEBUG:root:CACHE HIT! /Users/dave/TiVoShows/Rick_Steves'_Europe_Denmark_Beyond_Copenhagen_WPBA_1231525800.TiVo
DEBUG:root:CACHE HIT! /Users/dave/TiVoShows/Rick_Steves'_Europe_Denmark_Beyond_Copenhagen_WPBA_1231525800.TiVo
DEBUG:root:CACHE HIT! /Users/dave/TiVoShows/Rick_Steves'_Europe_Denmark_Beyond_Copenhagen_WPBA_1231525800.TiVo
DEBUG:pyTivo.video.transcode:TRANSCODE=YES, 6350 kbps exceeds max audio bitrate, /Users/dave/TiVoShows/Rick_Steves'_Europe_Denmark_Beyond_Copenhagen_WPBA_1231525800.TiVo
DEBUG:root:CACHE HIT! /Users/dave/TiVoShows/Rick_Steves'_Europe_Denmark_Beyond_Copenhagen_WPBA_1231525800.TiVo
DEBUG:root:CACHE HIT! /Users/dave/TiVoShows/Rick_Steves'_Europe_Denmark_Beyond_Copenhagen_WPBA_1231525800.TiVo
DEBUG:root:CACHE HIT! /Users/dave/TiVoShows/Rick_Steves'_Europe_Denmark_Beyond_Copenhagen_WPBA_1231525800.TiVo
DEBUG:root:CACHE HIT! /Users/dave/TiVoShows/Rick_Steves'_Europe_Denmark_Beyond_Copenhagen_WPBA_1231525800.TiVo
DEBUG:pyTivo.video.transcode:TRANSCODE=YES, 6350 kbps exceeds max audio bitrate, /Users/dave/TiVoShows/Rick_Steves'_Europe_Denmark_Beyond_Copenhagen_WPBA_1231525800.TiVo
DEBUG:root:CACHE HIT! /Users/dave/TiVoShows/Rick_Steves'_Europe_Denmark_Beyond_Copenhagen_WPBA_1231525800.TiVo
DEBUG:root:CACHE HIT! /Users/dave/TiVoShows/Rick_Steves'_Europe_Denmark_Beyond_Copenhagen_WPBA_1231525800.TiVo
DEBUG:root:CACHE HIT! /Users/dave/TiVoShows/Rick_Steves'_Europe_Denmark_Beyond_Copenhagen_WPBA_1231525800.TiVo
DEBUG:root:CACHE HIT! /Users/dave/TiVoShows/Rick_Steves'_Europe_Denmark_Beyond_Copenhagen_WPBA_1231525800.TiVo
DEBUG:root:tsn: 240000090205948
DEBUG:root:aspect169: False
DEBUG:root:optres: False
DEBUG:pyTivo.video.transcode:File=/Users/dave/TiVoShows/Rick_Steves'_Europe_Denmark_Beyond_Copenhagen_WPBA_1231525800.TiVo vCodec=mpeg2video vWidth=528 vHeight=480 vFps=29.97 millisecs=1802230 ratio=110 rheight=10 rwidth=11 TIVO_HEIGHT=480 TIVO_WIDTH=544
DEBUG:pyTivo.video.transcode:File is within 4:3 list.
DEBUG:root:CACHE HIT! /Users/dave/TiVoShows/Rick_Steves'_Europe_Denmark_Beyond_Copenhagen_WPBA_1231525800.TiVo
DEBUG:root:CACHE HIT! /Users/dave/TiVoShows/Rick_Steves'_Europe_Denmark_Beyond_Copenhagen_WPBA_1231525800.TiVo
DEBUG:root:CACHE HIT! /Users/dave/TiVoShows/Rick_Steves'_Europe_Denmark_Beyond_Copenhagen_WPBA_1231525800.TiVo
INFO:pyTivo:10.0.1.7 [13/May/2009 14:13:21] "GET /TiVoConnect?Command=TVBusQuery&Container=My%20Share%202&File=%2FRick_Steves'_Europe_Denmark_Beyond_Copenhagen_WPBA_1231525800.TiVo HTTP/1.1" 200 -

Quote:
Originally Posted by Yoav View Post
As an aside: I *hate hate hate* .tivo files. In the future, I recommend you never keep those around. Convert them to the mpeg-2 that they should be.
I understand, but for better or worse, that's the bread that Tivo bakes!

I could, as you mentioned, Transcode them to another format. But in my case, this would entail hundreds of hours of transcoding, only to wind up with the same videos I already have. .tivo files suit my limited needs, since I am merely wanting to view my collection on my various Tivos under my own MAK.

Anyhow, I'm back to good 'ole 1.1b24. It keeps on going and going and going...

Thanks!

Kupe
kupe is offline   Reply With Quote
Old 05-13-2009, 01:37 PM   #552
Yoav
Registered User
 
Join Date: Jan 2007
Posts: 1,048
Hm, the only error I can see in there is
Quote:
DEBUGyTivo.video.transcode:TRANSCODE=YES, 6350 kbps exceeds max audio bitrate, /Users/dave/TiVoShows/Rick_Steves'_Europe_Denmark_Beyond_Copenhagen_WPBA_123152580 0.TiVo
edit:

Oh hey.. I know why it's breaking

pytivo decided that the .tivo file needs to be transcoded, because the audio rate is too high (clearly it isn't since it came from the tivo, but pytivo thinks it is). Of course, since it's a .tivo file (garbage garbage garbage) ffmpeg can't actually read it properly to transcode.


Wmcbrine will need to chime in about the audio rate decision...

(and yeah, the .tivo thing is a personal gripe... wasn't trying to get you to do lots of extra work.. just bitching -- however, it's not hours of 'transcoding' to get the mpeg-2 out. tivodecode doesn't re-encode the file, it just strips out the stupid DRM and removes the metadata, resulting in the original mpeg-2 inside.. it's extremely fast.. however, in your situation I wouldn't bother doing it for old files -- but I would in the future save the mpeg-2 instead of the .tivo (for one thing, the mpeg-2 is playable everywhere -- and ffmpeg can read it).
__________________
Don't pay for Tivo Desktop / Roxio on the mac:
To view links or images in signatures your post count must be 10 or greater. You currently have 0 posts.
and
To view links or images in signatures your post count must be 10 or greater. You currently have 0 posts.
.

To view links or images in signatures your post count must be 10 or greater. You currently have 0 posts.

Last edited by Yoav : 05-13-2009 at 02:11 PM.
Yoav is offline   Reply With Quote
Old 05-13-2009, 02:43 PM   #553
wmcbrine
Resistance Useless
 
wmcbrine's Avatar
 
Join Date: Aug 2003
Posts: 8,970
Quote:
Originally Posted by Yoav View Post
Wmcbrine will need to chime in about the audio rate decision...
I feel confident in saying that the audio track isn't really 6350 Kbps. It's odd and unfortunate that ffmpeg is reading it that way. Was this encoded by the TiVo, or just captured from a digital channel?

I really don't want to go back to treating .TiVo files as black boxen. I'd suggest tivodecoding this one file, unless this keeps coming up...
__________________

To view links or images in signatures your post count must be 10 or greater. You currently have 0 posts.
wmcbrine is offline   Reply With Quote
Old 05-13-2009, 02:52 PM   #554
gonzotek
tivo_xml developer
 
gonzotek's Avatar
 
Join Date: Sep 2004
Location: Outside Phildadelphia
Posts: 2,212
Quote:
Originally Posted by wmcbrine View Post
I feel confident in saying that the audio track isn't really 6350 Kbps. It's odd and unfortunate that ffmpeg is reading it that way. Was this encoded by the TiVo, or just captured from a digital channel?

I really don't want to go back to treating .TiVo files as black boxen. I'd suggest tivodecoding this one file, unless this keeps coming up...
I think the resolution (528x480) and 6-channel audio suggest this is a digital capture, and not a TiVo-encoded file(that is assuming we can trust ffmpeg's report on those).
gonzotek is offline   Reply With Quote
Old 05-13-2009, 04:56 PM   #555
kupe
Viva 'la Tivolution!
 
Join Date: Apr 2003
Posts: 309
Quote:
Originally Posted by wmcbrine View Post
I feel confident in saying that the audio track isn't really 6350 Kbps. It's odd and unfortunate that ffmpeg is reading it that way. Was this encoded by the TiVo, or just captured from a digital channel?
This- and all my .tivo files were recorded by my Tivo from our regular cable broadcasts. Nothing out of the ordinary. They are verbatim as-is from the Tivo.

Quote:
Originally Posted by wmcbrine View Post
I'd suggest tivodecoding this one file, unless this keeps coming up...
Unfortunately it happens with all my .tivo files. None will transfer from my Mac to my Tivos with PyTivoX 1.2. However, they transfer just fine with PyTivoX 1.1b24.

Hope this helps and let me know what other info I can provide.

Kupe
kupe is offline   Reply With Quote
Old 05-13-2009, 08:00 PM   #556
wmcbrine
Resistance Useless
 
wmcbrine's Avatar
 
Join Date: Aug 2003
Posts: 8,970
Quote:
Originally Posted by kupe View Post
This- and all my .tivo files were recorded by my Tivo from our regular cable broadcasts.
Yes, but are they from analog channels (and thus, encoded by the TiVo) or digital (which, on a TiVo HD or S3, will simply be copied without reencoding)? Are they from an S3/THD or S2? I'm trying to determine if it's the TiVo or your cable company screwing them up.
__________________

To view links or images in signatures your post count must be 10 or greater. You currently have 0 posts.
wmcbrine is offline   Reply With Quote
Old 05-13-2009, 08:14 PM   #557
kupe
Viva 'la Tivolution!
 
Join Date: Apr 2003
Posts: 309
Quote:
Originally Posted by wmcbrine View Post
Yes, but are they from analog channels (and thus, encoded by the TiVo) or digital (which, on a TiVo HD or S3, will simply be copied without reencoding)? Are they from an S3/THD or S2? I'm trying to determine if it's the TiVo or your cable company screwing them up.
Ahhh...I see. I didn't realize the difference.

Well, the files I've been trying all came from NPR, so they are from our local Basic Cable channels. They were originally recorded on my THD, then downloaded to my Mac for storage. I ran into this latest problem when I was trying to transfer them to my S2. But I was also unable to transfer them back to my THD with PyTivoX 1.2, so that it surprising.

Gaccch now I realize how many moving parts are involved here!

But all works well in PyTivoX 1.1b24- I can transfer to my S2 and THD. I'm stumped!

Kupe
kupe is offline   Reply With Quote
Old 05-14-2009, 03:38 AM   #558
wmcbrine
Resistance Useless
 
wmcbrine's Avatar
 
Join Date: Aug 2003
Posts: 8,970
Quote:
Originally Posted by kupe View Post
Well, the files I've been trying all came from NPR,
Eh?

Quote:
so they are from our local Basic Cable channels. They were originally recorded on my THD
That still doesn't quite answer it. Let me try it this way: When you went to make these recordings, were you presented with an option to select the quality?

Quote:
But all works well in PyTivoX 1.1b24- I can transfer to my S2 and THD.
Yeah, I got that. It's because, until recently, pyTivo didn't look into .TiVo recordings at all, just passed through anything with that extension. Then "TheAmigo" pointed out that ffmpeg could actually get the info from these files as though they were plain MPEG-2 files, though it couldn't reencode them. That allowed the calculation of their length, for example. Until now, there didn't seem to be a downside.
__________________

To view links or images in signatures your post count must be 10 or greater. You currently have 0 posts.
wmcbrine is offline   Reply With Quote
Old 05-14-2009, 10:11 AM   #559
kupe
Viva 'la Tivolution!
 
Join Date: Apr 2003
Posts: 309
Quote:
Originally Posted by wmcbrine View Post
Eh?
Doh! Meant PBS of course- not NPR!

Quote:
Originally Posted by wmcbrine View Post
That still doesn't quite answer it. Let me try it this way: When you went to make these recordings, were you presented with an option to select the quality?
Ahhh- gotcha. Well, initially I wasn't sure since they were all recorded on a Season Pass. But I just went and tested this on our two PBS stations, and in both cases if I hit Record, there is no option on Quality.

Quote:
Originally Posted by wmcbrine View Post
...until recently, pyTivo didn't look into .TiVo recordings at all, just passed through anything with that extension. Then "TheAmigo" pointed out that ffmpeg could actually get the info from these files as though they were plain MPEG-2 files, though it couldn't reencode them. That allowed the calculation of their length, for example. Until now, there didn't seem to be a downside.
That makes sense. Perhaps ffmpeg could be told to disregard whatever the offending piece of metadata is? Assuming we can determine that I mean.

Hope this helps and thanks as always!

Kupe
kupe is offline   Reply With Quote
Old 05-14-2009, 11:16 AM   #560
Yoav
Registered User
 
Join Date: Jan 2007
Posts: 1,048
A slightly odd request, (Assuming you have iTiVo installed and pyTiVoX installed in /Applications). Can I get you to open up a Terminal.app and run (replace <MAK> with your actual MAK):

Code:
/Applications/iTiVo.app/Contents/Resources/tivodecode -m <MAK> -o ~/Desktop/output.mpg /Users/dave/TiVoShows/Rick_Steves'_Europe_Denmark_Beyond_Copenhagen_WPBA_1231525800.TiVo 
/Applications/pyTivoX.app/Contents/Resources/ffmpeg -i ~/Desktop/output.mpg
(fix the paths correctly if needed). This will remove the .tivo drm wrapper and I'm curious if ffmpeg *still* claims that insane audio bitrate...
__________________
Don't pay for Tivo Desktop / Roxio on the mac:
To view links or images in signatures your post count must be 10 or greater. You currently have 0 posts.
and
To view links or images in signatures your post count must be 10 or greater. You currently have 0 posts.
.

To view links or images in signatures your post count must be 10 or greater. You currently have 0 posts.
Yoav is offline   Reply With Quote
Old 05-14-2009, 11:33 AM   #561
kearygriffin
Registered User
 
Join Date: Jan 2008
Posts: 346
Not to confuse the issue, but it could also be partly ffmpeg related. On a couple of .TiVo files (a.tivo,b.tivo) running different versions of ffmpeg I get:

a.tivo
FFmpeg version SVN-r16263:
Stream #0.0[0x1bd]: Audio: ac3, 48000 Hz, stereo, s16, 96 kb/s
FFmpeg version 0.5-svn17737+3:0.svn20090303-1ubuntu6
Stream #0.0[0x1bd]: Audio: pcm_s16be, 48000 Hz, 5.0, s16, 3840 kb/s
Both versions after tivodecode:
Stream #0.0[0x1bd]: Audio: ac3, 48000 Hz, stereo, s16, 96 kb/s

b.tivo
FFmpeg version SVN-r16263:
Stream #0.1[0x1bd]: Audio: ac3, 48000 Hz, 5.1, s16, 448 kb/s
FFmpeg version 0.5-svn17737+3:0.svn20090303-1ubuntu6
Stream #0.1[0x1bd]: Audio: ac3, 48000 Hz, mono, s16, 1152 kb/s
Both versions after tivodecode:
Stream #0.1[0x1bd]: Audio: ac3, 48000 Hz, 5.1, s16, 448 kb/s

And the version details (r16263 is a home-built static version I use for debugging, the other is standard Ubuntu 9.04)
FFmpeg version SVN-r16263, Copyright (c) 2000-2008 Fabrice Bellard, et al.
configuration: --prefix=out --disable-shared --enable-static --enable-gpl --enable-pthreads --enable-swscale --enable-libfaac --enable-libfaad --enable-libx264 --enable-libxvid
libavutil 49.12. 0 / 49.12. 0
libavcodec 52. 8. 0 / 52. 8. 0
libavformat 52.23. 1 / 52.23. 1
libavdevice 52. 1. 0 / 52. 1. 0
libswscale 0. 6. 1 / 0. 6. 1
built on Jan 9 2009 14:18:05, gcc: 4.2.4 (Ubuntu 4.2.4-1ubuntu3)

--

FFmpeg version 0.5-svn17737+3:0.svn20090303-1ubuntu6, Copyright (c) 2000-2009 Fabrice Bellard, et al.
configuration: --enable-gpl --enable-postproc --enable-swscale --enable-x11grab --extra-version=svn17737+3:0.svn20090303-1ubuntu6 --prefix=/usr --enable-avfilter --enable-avfilter-lavf --enable-libgsm --enable-libschroedinger --enable-libspeex --enable-libtheora --enable-libvorbis --enable-pthreads --disable-stripping --disable-vhook --enable-libdc1394 --enable-shared --disable-static
libavutil 49.15. 0 / 49.15. 0
libavcodec 52.20. 0 / 52.20. 0
libavformat 52.31. 0 / 52.31. 0
libavdevice 52. 1. 0 / 52. 1. 0
libavfilter 0. 4. 0 / 0. 4. 0
libswscale 0. 7. 1 / 0. 7. 1
libpostproc 51. 2. 0 / 51. 2. 0
built on Apr 10 2009 23:20:33, gcc: 4.3.3
__________________

To view links or images in signatures your post count must be 10 or greater. You currently have 0 posts.
kearygriffin is offline   Reply With Quote
Old 05-14-2009, 01:34 PM   #562
wmcbrine
Resistance Useless
 
wmcbrine's Avatar
 
Join Date: Aug 2003
Posts: 8,970
Thanks. That doesn't confuse the issue; it clarifies it.

Perhaps I should just pass through all audio on .tivo files.
__________________

To view links or images in signatures your post count must be 10 or greater. You currently have 0 posts.
wmcbrine is offline   Reply With Quote
Old 05-14-2009, 09:03 PM   #563
wmcbrine
Resistance Useless
 
wmcbrine's Avatar
 
Join Date: Aug 2003
Posts: 8,970
OK, did that.
__________________

To view links or images in signatures your post count must be 10 or greater. You currently have 0 posts.
wmcbrine is offline   Reply With Quote
Old 05-15-2009, 01:35 AM   #564
Yoav
Registered User
 
Join Date: Jan 2007
Posts: 1,048
Quote:
Originally Posted by wmcbrine View Post

Perhaps I should just pass through all audio on .tivo files.
Ok, 1.3b1 is up on the downloads page. It has the new build that should work with .tivo files.
__________________
Don't pay for Tivo Desktop / Roxio on the mac:
To view links or images in signatures your post count must be 10 or greater. You currently have 0 posts.
and
To view links or images in signatures your post count must be 10 or greater. You currently have 0 posts.
.

To view links or images in signatures your post count must be 10 or greater. You currently have 0 posts.
Yoav is offline   Reply With Quote
Old 05-15-2009, 08:52 AM   #565
solutionsetc
Registered User
 
solutionsetc's Avatar
 
Join Date: Apr 2009
Location: Northern Sierra Nevada
Posts: 658
Hi Yoav,

Was trying to get push transfers to work the other day and no luck. Logs seem to indicate your referring to some hard coded paths...

File "/Users/yoav/src/pytivox/build/Release/pyTivoX.app/Contents/Resources/pyTivo-wmcbrine/httpserver.py", line 116, in do_POST
self.handle_query(query)
File "/Users/yoav/src/pytivox/build/Release/pyTivoX.app/Contents/Resources/pyTivo-wmcbrine/httpserver.py", line 138, in handle_query
method(self, query)
File "/Users/yoav/src/pytivox/build/Release/pyTivoX.app/Contents/Resources/pyTivo-wmcbrine/plugins/video/video.py", line 292, in Push
File "/Users/yoav/src/pytivox/build/Release/pyTivoX.app/Contents/Resources/pyTivo-wmcbrine/config.py", line 66, in get_ip
s.connect(('4.2.2.1', 0))
solutionsetc is offline   Reply With Quote
Old 05-15-2009, 11:07 AM   #566
Yoav
Registered User
 
Join Date: Jan 2007
Posts: 1,048
Quote:
Originally Posted by solutionsetc View Post
Hi Yoav,

Was trying to get push transfers to work the other day and no luck. Logs seem to indicate your referring to some hard coded paths...

File "/Users/yoav/src/pytivox/build/Release/pyTivoX.app/Contents/Resources/pyTivo-wmcbrine/httpserver.py", line 116, in do_POST
self.handle_query(query)
File "/Users/yoav/src/pytivox/build/Release/pyTivoX.app/Contents/Resources/pyTivo-wmcbrine/httpserver.py", line 138, in handle_query
method(self, query)
File "/Users/yoav/src/pytivox/build/Release/pyTivoX.app/Contents/Resources/pyTivo-wmcbrine/plugins/video/video.py", line 292, in Push
File "/Users/yoav/src/pytivox/build/Release/pyTivoX.app/Contents/Resources/pyTivo-wmcbrine/config.py", line 66, in get_ip
s.connect(('4.2.2.1', 0))
Ok that's pretty odd. I couldn't find anything that would refer to that path but clearly there must be. Are you running 1.2? Can I see your config file (it's in <user>/Library/Application Support/pyTivoX/pyTivo.conf ) ?

One remote guess.. The files in there (the .pyc) were created on my computer, and might be caching the location where
they were created.. but if that's the case, it should be breaking for everyone all the time.. so something else
must be going on...
__________________
Don't pay for Tivo Desktop / Roxio on the mac:
To view links or images in signatures your post count must be 10 or greater. You currently have 0 posts.
and
To view links or images in signatures your post count must be 10 or greater. You currently have 0 posts.
.

To view links or images in signatures your post count must be 10 or greater. You currently have 0 posts.

Last edited by Yoav : 05-15-2009 at 11:18 AM.
Yoav is offline   Reply With Quote
Old 05-15-2009, 11:18 AM   #567
gonzotek
tivo_xml developer
 
gonzotek's Avatar
 
Join Date: Sep 2004
Location: Outside Phildadelphia
Posts: 2,212
Quote:
Originally Posted by solutionsetc View Post
Hi Yoav,

Was trying to get push transfers to work the other day and no luck. Logs seem to indicate your referring to some hard coded paths...

File "/Users/yoav/src/pytivox/build/Release/pyTivoX.app/Contents/Resources/pyTivo-wmcbrine/httpserver.py", line 116, in do_POST
self.handle_query(query)
File "/Users/yoav/src/pytivox/build/Release/pyTivoX.app/Contents/Resources/pyTivo-wmcbrine/httpserver.py", line 138, in handle_query
method(self, query)
File "/Users/yoav/src/pytivox/build/Release/pyTivoX.app/Contents/Resources/pyTivo-wmcbrine/plugins/video/video.py", line 292, in Push
File "/Users/yoav/src/pytivox/build/Release/pyTivoX.app/Contents/Resources/pyTivo-wmcbrine/config.py", line 66, in get_ip
s.connect(('4.2.2.1', 0))
I think the problem is the port 0 call there on the last line. wmcbrine fixed that recently: http://repo.or.cz/w/pyTivo/wmcbrine....3bd6c3b3e52c9b
Yoav, I think your most recent beta should fix his problem.
gonzotek is offline   Reply With Quote
Old 05-15-2009, 11:25 AM   #568
solutionsetc
Registered User
 
solutionsetc's Avatar
 
Join Date: Apr 2009
Location: Northern Sierra Nevada
Posts: 658
Quote:
Originally Posted by Yoav View Post
Ok that's pretty odd. I couldn't find anything that would refer to that path but clearly there must be. Are you running 1.2?
Yes.

Quote:
Can I see your config file
# Created by pyTivoX, edits here WILL BE OVERWRITTEN

[Admin]
type=admin

[Server]
debug=True
tivo_username=xxxxxxxxxxxxxxxxx
tivo_password=xxxxxxxxxxxxxxxxx
ffmpeg=/Applications/pyTivoX.app/Contents/Resources/ffmpeg.bin
beacon=192.168.15.255
[PodCasts]
type=video
path=/Volumes/Stuff/Music/iTunes/iTunes Music/Podcasts

[Movies]
type=video
path=/Volumes/Stuff/Music/iTunes/iTunes Music/Movies

[Vinyl]
type=music
path=/Volumes/Stuff/Music/Vinyl
solutionsetc is offline   Reply With Quote
Old 05-15-2009, 11:26 AM   #569
Yoav
Registered User
 
Join Date: Jan 2007
Posts: 1,048
Quote:
Originally Posted by gonzotek View Post
I think the problem is the port 0 call there on the last line. wmcbrine fixed that recently: http://repo.or.cz/w/pyTivo/wmcbrine....3bd6c3b3e52c9b
Yoav, I think your most recent beta should fix his problem.
ooh Ok! Thanks for figuring it out.
solutions: can you install the beta and tell me if it fixes it? I may need to make a 1.2.1 release...
__________________
Don't pay for Tivo Desktop / Roxio on the mac:
To view links or images in signatures your post count must be 10 or greater. You currently have 0 posts.
and
To view links or images in signatures your post count must be 10 or greater. You currently have 0 posts.
.

To view links or images in signatures your post count must be 10 or greater. You currently have 0 posts.
Yoav is offline   Reply With Quote
Old 05-15-2009, 12:20 PM   #570
solutionsetc
Registered User
 
solutionsetc's Avatar
 
Join Date: Apr 2009
Location: Northern Sierra Nevada
Posts: 658
Quote:
Originally Posted by Yoav View Post
solutions: can you install the beta and tell me if it fixes it?
Yep, the beta build fixes this.
solutionsetc is offline   Reply With Quote
Reply
Forum Jump




Thread Tools


Posting Rules
You may not post new threads
You may not post replies
You may not post attachments
You may not edit your posts

vB code is On
Smilies are On
[IMG] code is On
HTML code is Off

Advertisements

TiVo Community
Powered by vBulletin® Version 3.6.8
Copyright ©2000 - 2014, Jelsoft Enterprises Ltd.
vBulletin Skins by: Relivo Media

(C) 2013 Magenium Solutions - All Rights Reserved. No information may be posted elsewhere without written permission.
TiVoŽ is a registered trademark of TiVo Inc. This site is not owned or operated by TiVo Inc.
All times are GMT -5. The time now is 07:31 PM.
OUR NETWORK: MyOpenRouter | TechLore | SansaCommunity | RoboCommunity | MediaSmart Home | Explore3DTV | Dijit Community | DVR Playground |