TiVo Community
TiVo Community
TiVo Community
Go Back   TiVo Community > Main TiVo Forums > TiVo Home Media Features & TiVoToGo
TiVo Community
Reply
Forum Jump
 
Thread Tools
Old 07-15-2012, 08:26 PM   #3571
starmanj
Registered User
 
Join Date: Aug 2007
Posts: 27
Pytivo: Error in ffmpeg.exe command

Hi wmcbrine!
FYI I see this show up in the python.exe output. Is this significant? See "***" marks below for highlight.
Starmanj

Metadata:
creation_time : 2012-07-08 03:37:01
Duration: 01:35:59.75, start: 0.000000, bitrate: 5184 kb/s
Stream #0:0(eng): Video: h264 (High), yuv420p, 1280x534, SAR 1:1 DAR 640:26
, 23.98 fps, 23.98 tbr, 1k tbn, 47.95 tbc (default)
Stream #0:1: Subtitle: text
Stream #0:2: Subtitle: text (default) (forced)
Stream #0:3(eng): Audio: dts (DTS), 48000 Hz, 5.1(side), s16, 1536 kb/s (de
ault)
****Please use -b:a or -b:v, -b is ambiguous****
[aformat @ 000000000434dce0] auto-inserting filter 'auto-inserted resampler 0'
etween the filter 'Parsed_anull_0' and the filter 'aformat'
[aresample @ 000000000434ddc0] chl:5.1(side) fmt:s16 r:48000Hz -> chl:5.1(side)
fmt:flt r:48000Hz
starmanj is offline   Reply With Quote
Old 07-20-2012, 09:22 AM   #3572
johnjay829
Registered User
 
Join Date: Jan 2007
Posts: 41
unable to pull a video.push works fine from webtool or vidmgr.

DEBUG:pyTivo.video.transcode:CACHE HIT! M:\Videos\Movies\Continuum\Season 1\Continuum - S01E01 - 720p WEB DL AAC2 0 H 264.mkv

the video will transfer around half of the video then i get this debug log
johnjay829 is offline   Reply With Quote
Old 07-20-2012, 09:26 AM   #3573
johnjay829
Registered User
 
Join Date: Jan 2007
Posts: 41
also any way to do a pull from webtools or other app. i like that i can transfer between hdtivo's when i use the pull from the tivo menu but i don't always at home to start a pull. it shows copy protected when i use the push function
johnjay829 is offline   Reply With Quote
Old 07-20-2012, 02:49 PM   #3574
wmcbrine
Resistance Useless
 
wmcbrine's Avatar
 
Join Date: Aug 2003
Posts: 9,019
Quote:
Originally Posted by johnjay829 View Post
DEBUG:pyTivo.video.transcode:CACHE HIT! M:\Videos\Movies\Continuum\Season 1\Continuum - S01E01 - 720p WEB DL AAC2 0 H 264.mkv
That line doesn't show the problem.

Quote:
also any way to do a pull from webtools or other app.
LOL. Starting the transfer from somewhere other than the TiVo's NPL is what defines it as a push.

Quote:
it shows copy protected when i use the push function
Yes. Sorry, not our choice (nor the copyright holder's, as the TiVo falsely claims). Nothing we can do about it.
__________________

To view links or images in signatures your post count must be 10 or greater. You currently have 0 posts.
wmcbrine is offline   Reply With Quote
Old 07-20-2012, 08:13 PM   #3575
lrhorer
Registered User
 
Join Date: Aug 2003
Location: San Antonio, Texas, USA
Posts: 6,867
Quote:
Originally Posted by wmcbrine View Post
Yes. Sorry, not our choice (nor the copyright holder's, as the TiVo falsely claims).
No kidding. In some cases, I am the copyright holder, and I definitely did not give TiVo permission to copy protect material I created.

Quote:
Originally Posted by wmcbrine View Post
Nothing we can do about it.
Yeah, not that it is a really big issue, but this is an outright example of pure laziness on the part of the Tivo developers. Rather than bother to put intelligence into the protocol to determine what the DRM status of the download might be, they just made everything downloaded copy protected.
lrhorer is offline   Reply With Quote
Old 07-20-2012, 09:05 PM   #3576
lpwcomp
Registered User
 
Join Date: May 2002
Location: John's Creek, Georgia
Posts: 5,121
Quote:
Originally Posted by lrhorer View Post
No kidding. In some cases, I am the copyright holder, and I definitely did not give TiVo permission to copy protect material I created.


Yeah, not that it is a really big issue, but this is an outright example of pure laziness on the part of the Tivo developers. Rather than bother to put intelligence into the protocol to determine what the DRM status of the download might be, they just made everything downloaded copy protected.
More accurately, they made everything "Pushed" copy protected.
__________________
James L. Sutherland
"You know TiVo users. Bunch of b****y little girls" TiVoAxe

"Jessica Fletcher visits Midsomer. Carnage ensues!"
lpwcomp is online now   Reply With Quote
Old 07-21-2012, 12:32 PM   #3577
johnjay829
Registered User
 
Join Date: Jan 2007
Posts: 41
Quote:
Originally Posted by wmcbrine View Post
That line doesn't show the problem.



LOL. Starting the transfer from somewhere other than the TiVo's NPL is what defines it as a push.



Yes. Sorry, not our choice (nor the copyright holder's, as the TiVo falsely claims). Nothing we can do about it.
can the cache size be increased also would i benefit from changing it
johnjay829 is offline   Reply With Quote
Old 07-21-2012, 12:35 PM   #3578
johnjay829
Registered User
 
Join Date: Jan 2007
Posts: 41
INFO:pyTivo:Last modified: Wed Jul 11 00:43:42 2012
INFO:pyTivo:Python: 2.7.2
INFO:pyTivo:System: Windows-7-6.1.7601-SP1
INFO:pyTivo.beacon:Announcing shares...
INFO:pyTivo.beacon:Registering: Amaya and Savannah
INFO:pyTivo.beacon:Registering: Movies
INFO:pyTivo.beacon:Registering: Tivo Remux
INFO:pyTivo.beacon:Registering: Tv Shows
INFO:pyTivo.beacon:Registering: Workouts
INFO:pyTivo.beacon:Scanning for TiVos...
INFO:pyTivo.beacon:Van & MyMy
INFO:pyTivo.beacon:Bedroom
INFO:pyTivo.beacon:Living Room
INFO:pyTivo:pyTivo is ready.
INFO:pyTivo:192.168.1.11 [21/Jul/2012 13:26:14] "GET /TiVoConnect?Command=QueryC
ontainer&Container=%2F&DoGenres=1 HTTP/1.0" 200 -
INFO:pyTivo:192.168.1.13 [21/Jul/2012 13:26:14] "GET /TiVoConnect?Command=QueryC
ontainer&Container=%2F&DoGenres=1 HTTP/1.0" 200 -
INFO:pyTivo:192.168.1.9 [21/Jul/2012 13:26:14] "GET /TiVoConnect?Command=QueryCo
ntainer&Container=%2F&DoGenres=1 HTTP/1.0" 200 -
INFO:pyTivo:192.168.1.14 [21/Jul/2012 13:26:14] "GET /TiVoConnect?Command=QueryC
ontainer&Container=%2F HTTP/1.0" 200 -
INFO:pyTivo:192.168.1.11 [21/Jul/2012 13:26:42] "GET /TiVoConnect?Command=QueryC
ontainer&Container=%2F&DoGenres=1 HTTP/1.0" 200 -
INFO:pyTivo:192.168.1.11 [21/Jul/2012 13:26:42] "GET /TiVoConnect?Command=QueryC
ontainer&Container=Tv%20Shows&ItemCount=0&SerialNum=74800119 0436551 HTTP/1.1" 20
0 -
INFO:pyTivo:192.168.1.11 [21/Jul/2012 13:26:42] "GET /TiVoConnect?Command=QueryC
ontainer&Container=Movies&ItemCount=0&SerialNum=748001190436 551 HTTP/1.1" 200 -
INFO:pyTivo:192.168.1.11 [21/Jul/2012 13:26:42] "GET /TiVoConnect?Command=QueryC
ontainer&Container=Tivo%20Remux&ItemCount=0&SerialNum=748001 190436551 HTTP/1.1"
200 -
INFO:pyTivo:192.168.1.11 [21/Jul/2012 13:26:43] "GET /TiVoConnect?Command=QueryC
ontainer&Container=Workouts&ItemCount=0&SerialNum=7480011904 36551 HTTP/1.1" 200
-
INFO:pyTivo:192.168.1.11 [21/Jul/2012 13:26:45] "GET /TiVoConnect?Command=QueryC
ontainer&Container=%2F&DoGenres=1 HTTP/1.0" 200 -
INFO:pyTivo:192.168.1.11 [21/Jul/2012 13:26:45] "GET /TiVoConnect?Command=QueryC
ontainer&Container=%2F&DoGenres=1 HTTP/1.0" 200 -
INFO:pyTivo:192.168.1.11 [21/Jul/2012 13:26:46] "GET /TiVoConnect?Command=QueryC
ontainer&Container=Amaya%20and%20Savannah&ItemCount=0&Serial Num=748001190436551
HTTP/1.1" 200 -
INFO:pyTivo:192.168.1.11 [21/Jul/2012 13:26:53] "GET /TiVoConnect?Command=QueryF
ormats&SourceFormat=video%2Fx-tivo-mpeg HTTP/1.1" 200 -
INFO:pyTivo:192.168.1.11 [21/Jul/2012 13:26:53] "GET /TiVoConnect?Command=QueryC
ontainer&Container=Movies&SortOrder=!CaptureDate&ItemCount=8 &Filter=x-tivo-conta
iner%2Ftivo-videos,x-tivo-container%2Ffolder,video%2Fx-tivo-mpeg,video%2F*&Seria
lNum=748001190436551 HTTP/1.1" 200 -
INFO:pyTivo:192.168.1.11 [21/Jul/2012 13:26:57] "GET /TiVoConnect?Command=QueryF
ormats&SourceFormat=video%2Fx-tivo-mpeg HTTP/1.1" 200 -
INFO:pyTivo:192.168.1.11 [21/Jul/2012 13:26:57] "GET /TiVoConnect?Command=QueryC
ontainer&Container=Movies%2FContinuum&SortOrder=!CaptureDate &ItemCount=8&Filter=
x-tivo-container%2Ftivo-videos,x-tivo-container%2Ffolder,video%2Fx-tivo-mpeg,vid
eo%2F*&SerialNum=748001190436551 HTTP/1.1" 200 -
INFO:pyTivo:192.168.1.11 [21/Jul/2012 13:26:59] "GET /TiVoConnect?Command=QueryF
ormats&SourceFormat=video%2Fx-tivo-mpeg HTTP/1.1" 200 -
INFO:pyTivo:192.168.1.11 [21/Jul/2012 13:26:59] "GET /TiVoConnect?Command=QueryC
ontainer&Container=Movies%2FContinuum%2FSeason%201&SortOrder =!CaptureDate&ItemCo
unt=8&Filter=x-tivo-container%2Ftivo-videos,x-tivo-container%2Ffolder,video%2Fx-
tivo-mpeg,video%2F*&SerialNum=748001190436551 HTTP/1.1" 200 -
INFO:pyTivo:192.168.1.11 [21/Jul/2012 13:26:59] "GET /TiVoConnect?Command=QueryF
ormats&SourceFormat=video%2Fx-tivo-mpeg-ts HTTP/1.1" 200 -
INFO:pyTivo:192.168.1.11 [21/Jul/2012 13:26:59] "GET /TiVoConnect?Command=QueryF
ormats&SourceFormat=video%2Fx-tivo-mpeg-ts HTTP/1.1" 200 -
INFO:pyTivo:192.168.1.11 [21/Jul/2012 13:27:03] "GET /TiVoConnect?Command=QueryF
ormats&SourceFormat=video%2Fx-tivo-mpeg HTTP/1.1" 200 -
DEBUG:pyTivo.video.transcode:starting ffmpeg, will wait 10 seconds for it to com
plete
DEBUG:pyTivo.video.transcode:ffmpeg output=FFmpeg version SVN-r21659-rdian06-1.0
2-win-x86_32, Copyright (c) 2000-2010 Fabrice Bellard, et al.
built on Aug 24 2010 20:46:16 with gcc 4.4.0
configuration: --enable-memalign-hack --disable-debug --enable-hardcoded-table
s --enable-runtime-cpudetect --enable-static --disable-shared --disable-ffserver
--disable-ffplay --enable-gpl --enable-pthreads --enable-libmp3lame --enable-li
bvorbis --enable-libtheora --enable-libspeex --enable-libgsm --enable-libx264 --
enable-libschroedinger --enable-libfaad --enable-libxvid --disable-decoder=aac -
-enable-avisynth --enable-postproc --enable-avfilter --enable-avfilter-lavf
libavutil 50. 8. 0 / 50. 8. 0
libavcodec 52.52. 0 / 52.52. 0
libavformat 52.50. 0 / 52.50. 0
libavdevice 52. 2. 0 / 52. 2. 0
libavfilter 1.17. 0 / 1.17. 0
libswscale 0.10. 0 / 0.10. 0
libpostproc 51. 2. 0 / 51. 2. 0
[matroska @ 0x14bd3f0]Estimating duration from bitrate, this may be inaccurate

Seems stream 0 codec frame rate differs from container frame rate: 47.95 (48000/
1001) -> 23.98 (24000/1001)
Input #0, matroska, from 'M:\Videos\Movies\Continuum\Season 1\Continuum - S01E07
- 720p HDTV x264 2HD.1.mkv':
Duration: 00:43:58.52, start: 0.000000, bitrate: 384 kb/s
Stream #0.0(eng): Video: h264, yuv420p, 1280x720, PAR 1:1 DAR 16:9, 24.39 fp
s, 23.98 tbr, 1k tbn, 47.95 tbc
Stream #0.1: Audio: ac3, 48000 Hz, 5.1, s16, 384 kb/s
At least one output file must be specified

DEBUG:pyTivo.video.transcode:aFreq=48000; aCh=6; container=matroska; kbps=384; m
apAudio=[('0.1', ' ac3, 48000 Hz, 5.1, s16, 384 kb/s\r')]; vHeight=720; vCodec=h
264; Supported=True; aKbps=384; par=None; millisecs=2638520; vFps=23.98; par2=1.
0; par1=1:1; mapVideo=0.0; vWidth=1280; dar1=16:9; rawmeta={}; aCodec=ac3
DEBUG:pyTivo.video.transcode:CACHE HIT! M:\Videos\Movies\Continuum\Season 1\Cont
inuum - S01E07 - 720p HDTV x264 2HD.1.mkv
DEBUG:pyTivo.video.transcode:CACHE HIT! M:\Videos\Movies\Continuum\Season 1\Cont
inuum - S01E07 - 720p HDTV x264 2HD.1.mkv
DEBUG:pyTivo.video.transcode:TRANSCODE=YES, vCodec h264 not compatible, M:\Video
s\Movies\Continuum\Season 1\Continuum - S01E07 - 720p HDTV x264 2HD.1.mkv
DEBUG:pyTivo.video.transcode:CACHE HIT! M:\Videos\Movies\Continuum\Season 1\Cont
inuum - S01E07 - 720p HDTV x264 2HD.1.mkv
DEBUG:pyTivo.video.transcode:CACHE HIT! M:\Videos\Movies\Continuum\Season 1\Cont
inuum - S01E07 - 720p HDTV x264 2HD.1.mkv
DEBUG:pyTivo.video.transcode:CACHE HIT! M:\Videos\Movies\Continuum\Season 1\Cont
inuum - S01E07 - 720p HDTV x264 2HD.1.mkv
DEBUG:pyTivo.video.transcode:CACHE HIT! M:\Videos\Movies\Continuum\Season 1\Cont
inuum - S01E07 - 720p HDTV x264 2HD.1.mkv
DEBUG:pyTivo.video.transcode:tsn: 748001190436551
DEBUG:pyTivo.video.transcode:aspect169: True
DEBUG:pyTivo.video.transcode:optres: False
DEBUG:pyTivo.video.transcode:File=M:\Videos\Movies\Continuum \Season 1\Continuum
- S01E07 - 720p HDTV x264 2HD.1.mkv vCodec=h264 vWidth=1280 vHeight=720 vFps=23.
98 millisecs=2638520 TIVO_HEIGHT=1080 TIVO_WIDTH=1920
DEBUG:pyTivo.video.transcode:CACHE HIT! M:\Videos\Movies\Continuum\Season 1\Cont
inuum - S01E07 - 720p HDTV x264 2HD.1.mkv
DEBUG:pyTivo.video.transcode:CACHE HIT! M:\Videos\Movies\Continuum\Season 1\Cont
inuum - S01E07 - 720p HDTV x264 2HD.1.mkv
DEBUG:pyTivo.video.transcode:CACHE HIT! M:\Videos\Movies\Continuum\Season 1\Cont
inuum - S01E07 - 720p HDTV x264 2HD.1.mkv
DEBUG:pyTivo.video.transcode:CACHE HIT! M:\Videos\Movies\Continuum\Season 1\Cont
inuum - S01E07 - 720p HDTV x264 2HD.1.mkv
DEBUG:pyTivo.video.transcode:audio_lang: None
DEBUG:pyTivo.video.transcode:selected audio stream: 0.1
DEBUG:pyTivo.video.transcode:CACHE HIT! M:\Videos\Movies\Continuum\Season 1\Cont
inuum - S01E07 - 720p HDTV x264 2HD.1.mkv
DEBUG:pyTivo.video.transcode:CACHE HIT! M:\Videos\Movies\Continuum\Season 1\Cont
inuum - S01E07 - 720p HDTV x264 2HD.1.mkv
DEBUG:pyTivo.video.transcode:TRANSCODE=YES, vCodec h264 not compatible, M:\Video
s\Movies\Continuum\Season 1\Continuum - S01E07 - 720p HDTV x264 2HD.1.mkv
DEBUG:pyTivo.video.transcode:CACHE HIT! M:\Videos\Movies\Continuum\Season 1\Cont
inuum - S01E07 - 720p HDTV x264 2HD.1.mkv
DEBUG:pyTivo.video.transcode:CACHE HIT! M:\Videos\Movies\Continuum\Season 1\Cont
inuum - S01E07 - 720p HDTV x264 2HD.1.mkv
INFO:pyTivo:192.168.1.11 [21/Jul/2012 13:27:03] "GET /TiVoConnect?Command=QueryC
ontainer&Container=Movies%2FContinuum%2FSeason%201&SortOrder =!CaptureDate&ItemCo
unt=1&AnchorItem=%2FMovies%2FContinuum%2FSeason%25201%2FCont inuum%2520-%2520S01E
07%2520-%2520720p%2520HDTV%2520x264%25202HD.1.mkv&AnchorOffset=-1&Filter=x-tivo-
container%2Ftivo-videos,x-tivo-container%2Ffolder,video%2Fx-tivo-mpeg,video%2F*&
SerialNum=748001190436551 HTTP/1.1" 200 -
DEBUG:pyTivo.video.transcode:CACHE HIT! M:\Videos\Movies\Continuum\Season 1\Cont
inuum - S01E07 - 720p HDTV x264 2HD.1.mkv
DEBUG:pyTivo.video.transcode:CACHE HIT! M:\Videos\Movies\Continuum\Season 1\Cont
inuum - S01E07 - 720p HDTV x264 2HD.1.mkv
DEBUG:pyTivo.video.transcode:CACHE HIT! M:\Videos\Movies\Continuum\Season 1\Cont
inuum - S01E07 - 720p HDTV x264 2HD.1.mkv
DEBUG:pyTivo.video.transcode:TRANSCODE=YES, vCodec h264 not compatible, M:\Video
s\Movies\Continuum\Season 1\Continuum - S01E07 - 720p HDTV x264 2HD.1.mkv
DEBUG:pyTivo.video.transcode:CACHE HIT! M:\Videos\Movies\Continuum\Season 1\Cont
inuum - S01E07 - 720p HDTV x264 2HD.1.mkv
DEBUG:pyTivo.video.transcode:CACHE HIT! M:\Videos\Movies\Continuum\Season 1\Cont
inuum - S01E07 - 720p HDTV x264 2HD.1.mkv
DEBUG:pyTivo.video.transcode:CACHE HIT! M:\Videos\Movies\Continuum\Season 1\Cont
inuum - S01E07 - 720p HDTV x264 2HD.1.mkv
DEBUG:pyTivo.video.transcode:CACHE HIT! M:\Videos\Movies\Continuum\Season 1\Cont
inuum - S01E07 - 720p HDTV x264 2HD.1.mkv
DEBUG:pyTivo.video.transcode:tsn: 748001190436551
DEBUG:pyTivo.video.transcode:aspect169: True
DEBUG:pyTivo.video.transcode:optres: False
DEBUG:pyTivo.video.transcode:File=M:\Videos\Movies\Continuum \Season 1\Continuum
- S01E07 - 720p HDTV x264 2HD.1.mkv vCodec=h264 vWidth=1280 vHeight=720 vFps=23.
98 millisecs=2638520 TIVO_HEIGHT=1080 TIVO_WIDTH=1920
DEBUG:pyTivo.video.transcode:CACHE HIT! M:\Videos\Movies\Continuum\Season 1\Cont
inuum - S01E07 - 720p HDTV x264 2HD.1.mkv
DEBUG:pyTivo.video.transcode:CACHE HIT! M:\Videos\Movies\Continuum\Season 1\Cont
inuum - S01E07 - 720p HDTV x264 2HD.1.mkv
DEBUG:pyTivo.video.transcode:CACHE HIT! M:\Videos\Movies\Continuum\Season 1\Cont
inuum - S01E07 - 720p HDTV x264 2HD.1.mkv
DEBUG:pyTivo.video.transcode:CACHE HIT! M:\Videos\Movies\Continuum\Season 1\Cont
inuum - S01E07 - 720p HDTV x264 2HD.1.mkv
DEBUG:pyTivo.video.transcode:audio_lang: None
DEBUG:pyTivo.video.transcode:selected audio stream: 0.1
DEBUG:pyTivo.video.transcode:CACHE HIT! M:\Videos\Movies\Continuum\Season 1\Cont
inuum - S01E07 - 720p HDTV x264 2HD.1.mkv
DEBUG:pyTivo.video.transcode:CACHE HIT! M:\Videos\Movies\Continuum\Season 1\Cont
inuum - S01E07 - 720p HDTV x264 2HD.1.mkv
DEBUG:pyTivo.video.transcode:TRANSCODE=YES, vCodec h264 not compatible, M:\Video
s\Movies\Continuum\Season 1\Continuum - S01E07 - 720p HDTV x264 2HD.1.mkv
DEBUG:pyTivo.video.transcode:CACHE HIT! M:\Videos\Movies\Continuum\Season 1\Cont
inuum - S01E07 - 720p HDTV x264 2HD.1.mkv
DEBUG:pyTivo.video.transcode:CACHE HIT! M:\Videos\Movies\Continuum\Season 1\Cont
inuum - S01E07 - 720p HDTV x264 2HD.1.mkv
INFO:pyTivo:192.168.1.11 [21/Jul/2012 13:27:03] "GET /TiVoConnect?Command=TVBusQ
uery&Container=Movies&File=%2FContinuum%2FSeason%201%2FConti nuum%20-%20S01E07%20
-%20720p%20HDTV%20x264%202HD.1.mkv&SerialNum=748001190436551 HTTP/1.1" 200 -
INFO:pyTivo:192.168.1.11 [21/Jul/2012 13:27:03] "GET /TiVoConnect?Command=QueryF
ormats&SourceFormat=video%2Fx-tivo-mpeg-ts HTTP/1.1" 200 -
DEBUG:pyTivo.video.transcode:CACHE HIT! M:\Videos\Movies\Continuum\Season 1\Cont
inuum - S01E07 - 720p HDTV x264 2HD.1.mkv
DEBUG:pyTivo.video.transcode:TRANSCODE=YES, vCodec h264 not compatible, M:\Video
s\Movies\Continuum\Season 1\Continuum - S01E07 - 720p HDTV x264 2HD.1.mkv
INFO:pyTivo:192.168.1.11 [21/Jul/2012 13:27:08] "GET /Movies/Continuum/Season%20
1/Continuum%20-%20S01E07%20-%20720p%20HDTV%20x264%202HD.1.mkv?Format=video%2Fx-t
ivo-mpeg-ts HTTP/1.1" 206 -
INFO:pyTivo.video.video:[21/Jul/2012 13:27:08] Start sending "M:\Videos\Movies\C
ontinuum\Season 1\Continuum - S01E07 - 720p HDTV x264 2HD.1.mkv" to Living Room
DEBUG:pyTivo.video.video:"M:\Videos\Movies\Continuum\Season 1\Continuum - S01E07
- 720p HDTV x264 2HD.1.mkv" is not tivo compatible
DEBUG:pyTivo.video.transcode:CACHE HIT! M:\Videos\Movies\Continuum\Season 1\Cont
inuum - S01E07 - 720p HDTV x264 2HD.1.mkv
DEBUG:pyTivo.video.transcode:CACHE HIT! M:\Videos\Movies\Continuum\Season 1\Cont
inuum - S01E07 - 720p HDTV x264 2HD.1.mkv
DEBUG:pyTivo.video.transcode:CACHE HIT! M:\Videos\Movies\Continuum\Season 1\Cont
inuum - S01E07 - 720p HDTV x264 2HD.1.mkv
DEBUG:pyTivo.video.transcode:CACHE HIT! M:\Videos\Movies\Continuum\Season 1\Cont
inuum - S01E07 - 720p HDTV x264 2HD.1.mkv
DEBUG:pyTivo.video.transcode:tsn: 748001190436551
DEBUG:pyTivo.video.transcode:aspect169: True
DEBUG:pyTivo.video.transcode:optres: False
DEBUG:pyTivo.video.transcode:File=M:\Videos\Movies\Continuum \Season 1\Continuum
- S01E07 - 720p HDTV x264 2HD.1.mkv vCodec=h264 vWidth=1280 vHeight=720 vFps=23.
98 millisecs=2638520 TIVO_HEIGHT=1080 TIVO_WIDTH=1920
DEBUG:pyTivo.video.transcode:CACHE HIT! M:\Videos\Movies\Continuum\Season 1\Cont
inuum - S01E07 - 720p HDTV x264 2HD.1.mkv
DEBUG:pyTivo.video.transcode:CACHE HIT! M:\Videos\Movies\Continuum\Season 1\Cont
inuum - S01E07 - 720p HDTV x264 2HD.1.mkv
DEBUG:pyTivo.video.transcode:CACHE HIT! M:\Videos\Movies\Continuum\Season 1\Cont
inuum - S01E07 - 720p HDTV x264 2HD.1.mkv
DEBUG:pyTivo.video.transcode:CACHE HIT! M:\Videos\Movies\Continuum\Season 1\Cont
inuum - S01E07 - 720p HDTV x264 2HD.1.mkv
DEBUG:pyTivo.video.transcode:audio_lang: None
DEBUG:pyTivo.video.transcode:selected audio stream: 0.1
DEBUG:pyTivo.video.transcode:transcoding to tivo model 748 using ffmpeg command:

DEBUG:pyTivo.video.transcode:M:\Programs\PyTivo\bin\ffmpeg.e xe -i M:\Videos\Movi
es\Continuum\Season 1\Continuum - S01E07 - 720p HDTV x264 2HD.1.mkv -vcodec mpeg
2video -b 16384k -maxrate 30000k -bufsize 4096k -ab 448k -ar 48000 -acodec copy
-copyts -map 0.0 -map 0.1 -f mpegts -
FFmpeg version SVN-r21659-rdian06-1.02-win-x86_32, Copyright (c) 2000-2010 Fabri
ce Bellard, et al.
built on Aug 24 2010 20:46:16 with gcc 4.4.0
configuration: --enable-memalign-hack --disable-debug --enable-hardcoded-table
s --enable-runtime-cpudetect --enable-static --disable-shared --disable-ffserver
--disable-ffplay --enable-gpl --enable-pthreads --enable-libmp3lame --enable-li
bvorbis --enable-libtheora --enable-libspeex --enable-libgsm --enable-libx264 --
enable-libschroedinger --enable-libfaad --enable-libxvid --disable-decoder=aac -
-enable-avisynth --enable-postproc --enable-avfilter --enable-avfilter-lavf
libavutil 50. 8. 0 / 50. 8. 0
libavcodec 52.52. 0 / 52.52. 0
libavformat 52.50. 0 / 52.50. 0
libavdevice 52. 2. 0 / 52. 2. 0
libavfilter 1.17. 0 / 1.17. 0
libswscale 0.10. 0 / 0.10. 0
libpostproc 51. 2. 0 / 51. 2. 0
[matroska @ 0x14780c0]Estimating duration from bitrate, this may be inaccurate

Seems stream 0 codec frame rate differs from container frame rate: 47.95 (48000/
1001) -> 23.98 (24000/1001)
Input #0, matroska, from 'M:\Videos\Movies\Continuum\Season 1\Continuum - S01E07
- 720p HDTV x264 2HD.1.mkv':
Duration: 00:43:58.52, start: 0.000000, bitrate: 384 kb/s
Stream #0.0(eng): Video: h264, yuv420p, 1280x720, PAR 1:1 DAR 16:9, 24.39 fp
s, 23.98 tbr, 1k tbn, 47.95 tbc
Stream #0.1: Audio: ac3, 48000 Hz, 5.1, s16, 384 kb/s
Output #0, mpegts, to 'pipe:':
Stream #0.0(eng): Video: mpeg2video, yuv420p, 1280x720 [PAR 1:1 DAR 16:9], q
=2-31, 16384 kb/s, 90k tbn, 23.98 tbc
Stream #0.1: Audio: ac3, 48000 Hz, 5.1, 384 kb/s
Stream mapping:
Stream #0.0 -> #0.0
Stream #0.1 -> #0.1
Press [q] to stop encoding
frm= 785 fps= 7 q= 2.0 size= 134937kB time= 32.70 brt=33805.0kbps
**********************************************************
transfer just stops here no errors???
johnjay829 is offline   Reply With Quote
Old 07-21-2012, 01:58 PM   #3579
lrhorer
Registered User
 
Join Date: Aug 2003
Location: San Antonio, Texas, USA
Posts: 6,867
Please use code tags when displaying log files or other information of this sort. It makes the text far, far more readable and it takes much less screen real estate:

Code:
INFO:pyTivo:Last modified: Wed Jul 11 00:43:42 2012
INFO:pyTivo:Python: 2.7.2
INFO:pyTivo:System: Windows-7-6.1.7601-SP1
INFO:pyTivo.beacon:Announcing shares...
INFO:pyTivo.beacon:Registering: Amaya and Savannah
INFO:pyTivo.beacon:Registering: Movies
INFO:pyTivo.beacon:Registering: Tivo Remux
INFO:pyTivo.beacon:Registering: Tv Shows
INFO:pyTivo.beacon:Registering: Workouts
INFO:pyTivo.beacon:Scanning for TiVos...
INFO:pyTivo.beacon:Van & MyMy
INFO:pyTivo.beacon:Bedroom
INFO:pyTivo.beacon:Living Room
INFO:pyTivo:pyTivo is ready.
INFO:pyTivo:192.168.1.11 [21/Jul/2012 13:26:14] "GET /TiVoConnect?Command=QueryContainer&Container=%2F&DoGenres=1 HTTP/1.0" 200 -
INFO:pyTivo:192.168.1.13 [21/Jul/2012 13:26:14] "GET /TiVoConnect?Command=QueryContainer&Container=%2F&DoGenres=1 HTTP/1.0" 200 -
INFO:pyTivo:192.168.1.9 [21/Jul/2012 13:26:14] "GET /TiVoConnect?Command=QueryContainer&Container=%2F&DoGenres=1 HTTP/1.0" 200 -
INFO:pyTivo:192.168.1.14 [21/Jul/2012 13:26:14] "GET /TiVoConnect?Command=QueryContainer&Container=%2F HTTP/1.0" 200 -
INFO:pyTivo:192.168.1.11 [21/Jul/2012 13:26:42] "GET /TiVoConnect?Command=QueryContainer&Container=%2F&DoGenres=1 HTTP/1.0" 200 -
INFO:pyTivo:192.168.1.11 [21/Jul/2012 13:26:42] "GET /TiVoConnect?Command=QueryContainer&Container=Tv%20Shows&ItemCount=0&SerialNum=748001190436551 HTTP/1.1" 200 -
INFO:pyTivo:192.168.1.11 [21/Jul/2012 13:26:42] "GET /TiVoConnect?Command=QueryContainer&Container=Movies&ItemCount=0&SerialNum=748001190436551 HTTP/1.1" 200 -
INFO:pyTivo:192.168.1.11 [21/Jul/2012 13:26:42] "GET /TiVoConnect?Command=QueryContainer&Container=Tivo%20Remux&ItemCount=0&SerialNum=748001190436551 HTTP/1.1" 200 -
INFO:pyTivo:192.168.1.11 [21/Jul/2012 13:26:43] "GET /TiVoConnect?Command=QueryContainer&Container=Workouts&ItemCount=0&SerialNum=748001190436551 HTTP/1.1" 200 -
INFO:pyTivo:192.168.1.11 [21/Jul/2012 13:26:45] "GET /TiVoConnect?Command=QueryContainer&Container=%2F&DoGenres=1 HTTP/1.0" 200 -
INFO:pyTivo:192.168.1.11 [21/Jul/2012 13:26:45] "GET /TiVoConnect?Command=QueryContainer&Container=%2F&DoGenres=1 HTTP/1.0" 200 -
INFO:pyTivo:192.168.1.11 [21/Jul/2012 13:26:46] "GET /TiVoConnect?Command=QueryContainer&Container=Amaya%20and%20Savannah&ItemCount=0&SerialNum=748001190436551 HTTP/1.1" 200 -
INFO:pyTivo:192.168.1.11 [21/Jul/2012 13:26:53] "GET /TiVoConnect?Command=QueryFormats&SourceFormat=video%2Fx-tivo-mpeg HTTP/1.1" 200 -
INFO:pyTivo:192.168.1.11 [21/Jul/2012 13:26:53] "GET /TiVoConnect?Command=QueryContainer&Container=Movies&SortOrder=!CaptureDate&ItemCount=8&Filter=x-tivo-container%2Ftivo-videos,x-tivo-container%2Ffolder,video%2Fx-tivo-mpeg,video%2F*&SerialNum=748001190436551 HTTP/1.1" 200 -
INFO:pyTivo:192.168.1.11 [21/Jul/2012 13:26:57] "GET /TiVoConnect?Command=QueryFormats&SourceFormat=video%2Fx-tivo-mpeg HTTP/1.1" 200 -
INFO:pyTivo:192.168.1.11 [21/Jul/2012 13:26:57] "GET /TiVoConnect?Command=QueryContainer&Container=Movies%2FContinuum&SortOrder=!CaptureDate&ItemCount=8&Filter=x-tivo-container%2Ftivo-videos,x-tivo-container%2Ffolder,video%2Fx-tivo-mpeg,video%2F*&SerialNum=748001190436551 HTTP/1.1" 200 -
INFO:pyTivo:192.168.1.11 [21/Jul/2012 13:26:59] "GET /TiVoConnect?Command=QueryFormats&SourceFormat=video%2Fx-tivo-mpeg HTTP/1.1" 200 -
INFO:pyTivo:192.168.1.11 [21/Jul/2012 13:26:59] "GET /TiVoConnect?Command=QueryContainer&Container=Movies%2FContinuum%2FSeason%201&SortOrder=!CaptureDate&ItemCount=8&Filter=x-tivo-container%2Ftivo-videos,x-tivo-container%2Ffolder,video%2Fx-tivo-mpeg,video%2F*&SerialNum=748001190436551 HTTP/1.1" 200 -
INFO:pyTivo:192.168.1.11 [21/Jul/2012 13:26:59] "GET /TiVoConnect?Command=QueryFormats&SourceFormat=video%2Fx-tivo-mpeg-ts HTTP/1.1" 200 -
INFO:pyTivo:192.168.1.11 [21/Jul/2012 13:26:59] "GET /TiVoConnect?Command=QueryFormats&SourceFormat=video%2Fx-tivo-mpeg-ts HTTP/1.1" 200 -
INFO:pyTivo:192.168.1.11 [21/Jul/2012 13:27:03] "GET /TiVoConnect?Command=QueryFormats&SourceFormat=video%2Fx-tivo-mpeg HTTP/1.1" 200 -
DEBUG:pyTivo.video.transcode:starting ffmpeg, will wait 10 seconds for it to complete
DEBUG:pyTivo.video.transcode:ffmpeg output=FFmpeg version SVN-r21659-rdian06-1.02-win-x86_32, Copyright (c) 2000-2010 Fabrice Bellard, et al.
  built on Aug 24 2010 20:46:16 with gcc 4.4.0
  configuration: --enable-memalign-hack --disable-debug --enable-hardcoded-tables --enable-runtime-cpudetect --enable-static --disable-shared --disable-ffserver --disable-ffplay --enable-gpl --enable-pthreads --enable-libmp3lame --enable-libvorbis --enable-libtheora --enable-libspeex --enable-libgsm --enable-libx264 --enable-libschroedinger --enable-libfaad --enable-libxvid --disable-decoder=aac --enable-avisynth --enable-postproc --enable-avfilter --enable-avfilter-lavf
  libavutil     50. 8. 0 / 50. 8. 0
  libavcodec    52.52. 0 / 52.52. 0
  libavformat   52.50. 0 / 52.50. 0
  libavdevice   52. 2. 0 / 52. 2. 0
  libavfilter    1.17. 0 /  1.17. 0
  libswscale     0.10. 0 /  0.10. 0
  libpostproc   51. 2. 0 / 51. 2. 0
[matroska @ 0x14bd3f0]Estimating duration from bitrate, this may be inaccurate

Seems stream 0 codec frame rate differs from container frame rate: 47.95 (48000/1001) -> 23.98 (24000/1001)
Input #0, matroska, from 'M:\Videos\Movies\Continuum\Season 1\Continuum - S01E07 - 720p HDTV x264 2HD.1.mkv':
  Duration: 00:43:58.52, start: 0.000000, bitrate: 384 kb/s
    Stream #0.0(eng): Video: h264, yuv420p, 1280x720, PAR 1:1 DAR 16:9, 24.39 fps, 23.98 tbr, 1k tbn, 47.95 tbc
    Stream #0.1: Audio: ac3, 48000 Hz, 5.1, s16, 384 kb/s
At least one output file must be specified

DEBUG:pyTivo.video.transcode:aFreq=48000; aCh=6; container=matroska; kbps=384; mapAudio=[('0.1', ' ac3, 48000 Hz, 5.1, s16, 384 kb/s\r')]; vHeight=720; vCodec=h264; Supported=True; aKbps=384; par=None; millisecs=2638520; vFps=23.98; par2=1.0; par1=1:1; mapVideo=0.0; vWidth=1280; dar1=16:9; rawmeta={}; aCodec=ac3
DEBUG:pyTivo.video.transcode:CACHE HIT! M:\Videos\Movies\Continuum\Season 1\Continuum - S01E07 - 720p HDTV x264 2HD.1.mkv
DEBUG:pyTivo.video.transcode:CACHE HIT! M:\Videos\Movies\Continuum\Season 1\Continuum - S01E07 - 720p HDTV x264 2HD.1.mkv
DEBUG:pyTivo.video.transcode:TRANSCODE=YES, vCodec h264 not compatible, M:\Videos\Movies\Continuum\Season 1\Continuum - S01E07 - 720p HDTV x264 2HD.1.mkv
DEBUG:pyTivo.video.transcode:CACHE HIT! M:\Videos\Movies\Continuum\Season 1\Continuum - S01E07 - 720p HDTV x264 2HD.1.mkv
DEBUG:pyTivo.video.transcode:CACHE HIT! M:\Videos\Movies\Continuum\Season 1\Continuum - S01E07 - 720p HDTV x264 2HD.1.mkv
DEBUG:pyTivo.video.transcode:CACHE HIT! M:\Videos\Movies\Continuum\Season 1\Continuum - S01E07 - 720p HDTV x264 2HD.1.mkv
DEBUG:pyTivo.video.transcode:CACHE HIT! M:\Videos\Movies\Continuum\Season 1\Continuum - S01E07 - 720p HDTV x264 2HD.1.mkv
DEBUG:pyTivo.video.transcode:tsn: 748001190436551
DEBUG:pyTivo.video.transcode:aspect169: True
DEBUG:pyTivo.video.transcode:optres: False
DEBUG:pyTivo.video.transcode:File=M:\Videos\Movies\Continuum\Season 1\Continuum - S01E07 - 720p HDTV x264 2HD.1.mkv vCodec=h264 vWidth=1280 vHeight=720 vFps=23.98 millisecs=2638520 TIVO_HEIGHT=1080 TIVO_WIDTH=1920
DEBUG:pyTivo.video.transcode:CACHE HIT! M:\Videos\Movies\Continuum\Season 1\Continuum - S01E07 - 720p HDTV x264 2HD.1.mkv
DEBUG:pyTivo.video.transcode:CACHE HIT! M:\Videos\Movies\Continuum\Season 1\Continuum - S01E07 - 720p HDTV x264 2HD.1.mkv
DEBUG:pyTivo.video.transcode:CACHE HIT! M:\Videos\Movies\Continuum\Season 1\Continuum - S01E07 - 720p HDTV x264 2HD.1.mkv
DEBUG:pyTivo.video.transcode:CACHE HIT! M:\Videos\Movies\Continuum\Season 1\Continuum - S01E07 - 720p HDTV x264 2HD.1.mkv
DEBUG:pyTivo.video.transcode:audio_lang: None
DEBUG:pyTivo.video.transcode:selected audio stream: 0.1
DEBUG:pyTivo.video.transcode:CACHE HIT! M:\Videos\Movies\Continuum\Season 1\Continuum - S01E07 - 720p HDTV x264 2HD.1.mkv
DEBUG:pyTivo.video.transcode:CACHE HIT! M:\Videos\Movies\Continuum\Season 1\Continuum - S01E07 - 720p HDTV x264 2HD.1.mkv
DEBUG:pyTivo.video.transcode:TRANSCODE=YES, vCodec h264 not compatible, M:\Videos\Movies\Continuum\Season 1\Continuum - S01E07 - 720p HDTV x264 2HD.1.mkv
DEBUG:pyTivo.video.transcode:CACHE HIT! M:\Videos\Movies\Continuum\Season 1\Continuum - S01E07 - 720p HDTV x264 2HD.1.mkv
DEBUG:pyTivo.video.transcode:CACHE HIT! M:\Videos\Movies\Continuum\Season 1\Continuum - S01E07 - 720p HDTV x264 2HD.1.mkv
INFO:pyTivo:192.168.1.11 [21/Jul/2012 13:27:03] "GET /TiVoConnect?Command=QueryContainer&Container=Movies%2FContinuum%2FSeason%201&SortOrder=!CaptureDate&ItemCount=1&AnchorItem=%2FMovies%2FContinuum%2FSeason%25201%2FContinuum%2520-%2520S01E07%2520-%2520720p%2520HDTV%2520x264%25202HD.1.mkv&AnchorOffset=-1&Filter=x-tivo-container%2Ftivo-videos,x-tivo-container%2Ffolder,video%2Fx-tivo-mpeg,video%2F*&SerialNum=748001190436551 HTTP/1.1" 200 -
DEBUG:pyTivo.video.transcode:CACHE HIT! M:\Videos\Movies\Continuum\Season 1\Continuum - S01E07 - 720p HDTV x264 2HD.1.mkv
DEBUG:pyTivo.video.transcode:CACHE HIT! M:\Videos\Movies\Continuum\Season 1\Continuum - S01E07 - 720p HDTV x264 2HD.1.mkv
DEBUG:pyTivo.video.transcode:CACHE HIT! M:\Videos\Movies\Continuum\Season 1\Continuum - S01E07 - 720p HDTV x264 2HD.1.mkv
DEBUG:pyTivo.video.transcode:TRANSCODE=YES, vCodec h264 not compatible, M:\Videos\Movies\Continuum\Season 1\Continuum - S01E07 - 720p HDTV x264 2HD.1.mkv
DEBUG:pyTivo.video.transcode:CACHE HIT! M:\Videos\Movies\Continuum\Season 1\Continuum - S01E07 - 720p HDTV x264 2HD.1.mkv
DEBUG:pyTivo.video.transcode:CACHE HIT! M:\Videos\Movies\Continuum\Season 1\Continuum - S01E07 - 720p HDTV x264 2HD.1.mkv
DEBUG:pyTivo.video.transcode:CACHE HIT! M:\Videos\Movies\Continuum\Season 1\Continuum - S01E07 - 720p HDTV x264 2HD.1.mkv
DEBUG:pyTivo.video.transcode:CACHE HIT! M:\Videos\Movies\Continuum\Season 1\Continuum - S01E07 - 720p HDTV x264 2HD.1.mkv
DEBUG:pyTivo.video.transcode:tsn: 748001190436551
DEBUG:pyTivo.video.transcode:aspect169: True
DEBUG:pyTivo.video.transcode:optres: False
DEBUG:pyTivo.video.transcode:File=M:\Videos\Movies\Continuum\Season 1\Continuum- S01E07 - 720p HDTV x264 2HD.1.mkv vCodec=h264 vWidth=1280 vHeight=720 vFps=23.98 millisecs=2638520 TIVO_HEIGHT=1080 TIVO_WIDTH=1920
DEBUG:pyTivo.video.transcode:CACHE HIT! M:\Videos\Movies\Continuum\Season 1\Continuum - S01E07 - 720p HDTV x264 2HD.1.mkv
DEBUG:pyTivo.video.transcode:CACHE HIT! M:\Videos\Movies\Continuum\Season 1\Continuum - S01E07 - 720p HDTV x264 2HD.1.mkv
DEBUG:pyTivo.video.transcode:CACHE HIT! M:\Videos\Movies\Continuum\Season 1\Continuum - S01E07 - 720p HDTV x264 2HD.1.mkv
DEBUG:pyTivo.video.transcode:CACHE HIT! M:\Videos\Movies\Continuum\Season 1\Continuum - S01E07 - 720p HDTV x264 2HD.1.mkv
DEBUG:pyTivo.video.transcode:audio_lang: None
DEBUG:pyTivo.video.transcode:selected audio stream: 0.1
DEBUG:pyTivo.video.transcode:CACHE HIT! M:\Videos\Movies\Continuum\Season 1\Continuum - S01E07 - 720p HDTV x264 2HD.1.mkv
DEBUG:pyTivo.video.transcode:CACHE HIT! M:\Videos\Movies\Continuum\Season 1\Continuum - S01E07 - 720p HDTV x264 2HD.1.mkv
DEBUG:pyTivo.video.transcode:TRANSCODE=YES, vCodec h264 not compatible, M:\Videos\Movies\Continuum\Season 1\Continuum - S01E07 - 720p HDTV x264 2HD.1.mkv
DEBUG:pyTivo.video.transcode:CACHE HIT! M:\Videos\Movies\Continuum\Season 1\Continuum - S01E07 - 720p HDTV x264 2HD.1.mkv
DEBUG:pyTivo.video.transcode:CACHE HIT! M:\Videos\Movies\Continuum\Season 1\Continuum - S01E07 - 720p HDTV x264 2HD.1.mkv
INFO:pyTivo:192.168.1.11 [21/Jul/2012 13:27:03] "GET /TiVoConnect?Command=TVBusQuery&Container=Movies&File=%2FContinuum%2FSeason%201%2FContinuum%20-%20S01E07%20-%20720p%20HDTV%20x264%202HD.1.mkv&SerialNum=748001190436551 HTTP/1.1" 200 -
INFO:pyTivo:192.168.1.11 [21/Jul/2012 13:27:03] "GET /TiVoConnect?Command=QueryFormats&SourceFormat=video%2Fx-tivo-mpeg-ts HTTP/1.1" 200 -
DEBUG:pyTivo.video.transcode:CACHE HIT! M:\Videos\Movies\Continuum\Season 1\Continuum - S01E07 - 720p HDTV x264 2HD.1.mkv
DEBUG:pyTivo.video.transcode:TRANSCODE=YES, vCodec h264 not compatible, M:\Videos\Movies\Continuum\Season 1\Continuum - S01E07 - 720p HDTV x264 2HD.1.mkv
INFO:pyTivo:192.168.1.11 [21/Jul/2012 13:27:08] "GET /Movies/Continuum/Season%201/Continuum%20-%20S01E07%20-%20720p%20HDTV%20x264%202HD.1.mkv?Format=video%2Fx-tivo-mpeg-ts HTTP/1.1" 206 -
INFO:pyTivo.video.video:[21/Jul/2012 13:27:08] Start sending "M:\Videos\Movies\Continuum\Season 1\Continuum - S01E07 - 720p HDTV x264 2HD.1.mkv" to Living Room
DEBUG:pyTivo.video.video:"M:\Videos\Movies\Continuum\Season 1\Continuum - S01E07 - 720p HDTV x264 2HD.1.mkv" is not tivo compatible
DEBUG:pyTivo.video.transcode:CACHE HIT! M:\Videos\Movies\Continuum\Season 1\Continuum - S01E07 - 720p HDTV x264 2HD.1.mkv
DEBUG:pyTivo.video.transcode:CACHE HIT! M:\Videos\Movies\Continuum\Season 1\Continuum - S01E07 - 720p HDTV x264 2HD.1.mkv
DEBUG:pyTivo.video.transcode:CACHE HIT! M:\Videos\Movies\Continuum\Season 1\Continuum - S01E07 - 720p HDTV x264 2HD.1.mkv
DEBUG:pyTivo.video.transcode:CACHE HIT! M:\Videos\Movies\Continuum\Season 1\Continuum - S01E07 - 720p HDTV x264 2HD.1.mkv
DEBUG:pyTivo.video.transcode:tsn: 748001190436551
DEBUG:pyTivo.video.transcode:aspect169: True
DEBUG:pyTivo.video.transcode:optres: False
DEBUG:pyTivo.video.transcode:File=M:\Videos\Movies\Continuum\Season 1\Continuum- S01E07 - 720p HDTV x264 2HD.1.mkv vCodec=h264 vWidth=1280 vHeight=720 vFps=23.98 millisecs=2638520 TIVO_HEIGHT=1080 TIVO_WIDTH=1920
DEBUG:pyTivo.video.transcode:CACHE HIT! M:\Videos\Movies\Continuum\Season 1\Continuum - S01E07 - 720p HDTV x264 2HD.1.mkv
DEBUG:pyTivo.video.transcode:CACHE HIT! M:\Videos\Movies\Continuum\Season 1\Continuum - S01E07 - 720p HDTV x264 2HD.1.mkv
DEBUG:pyTivo.video.transcode:CACHE HIT! M:\Videos\Movies\Continuum\Season 1\Continuum - S01E07 - 720p HDTV x264 2HD.1.mkv
DEBUG:pyTivo.video.transcode:CACHE HIT! M:\Videos\Movies\Continuum\Season 1\Continuum - S01E07 - 720p HDTV x264 2HD.1.mkv
DEBUG:pyTivo.video.transcode:audio_lang: None
DEBUG:pyTivo.video.transcode:selected audio stream: 0.1
DEBUG:pyTivo.video.transcode:transcoding to tivo model 748 using ffmpeg command:

DEBUG:pyTivo.video.transcode:M:\Programs\PyTivo\bin\ffmpeg.exe -i M:\Videos\Movies\Continuum\Season 1\Continuum - S01E07 - 720p HDTV x264 2HD.1.mkv -vcodec mpeg2video -b 16384k -maxrate 30000k -bufsize 4096k -ab 448k -ar 48000 -acodec copy -copyts -map 0.0 -map 0.1 -f mpegts -
FFmpeg version SVN-r21659-rdian06-1.02-win-x86_32, Copyright (c) 2000-2010 Fabrice Bellard, et al.
  built on Aug 24 2010 20:46:16 with gcc 4.4.0
  configuration: --enable-memalign-hack --disable-debug --enable-hardcoded-tables --enable-runtime-cpudetect --enable-static --disable-shared --disable-ffserver
 --disable-ffplay --enable-gpl --enable-pthreads --enable-libmp3lame --enable-libvorbis --enable-libtheora --enable-libspeex --enable-libgsm --enable-libx264 --enable-libschroedinger --enable-libfaad --enable-libxvid --disable-decoder=aac --enable-avisynth --enable-postproc --enable-avfilter --enable-avfilter-lavf
  libavutil     50. 8. 0 / 50. 8. 0
  libavcodec    52.52. 0 / 52.52. 0
  libavformat   52.50. 0 / 52.50. 0
  libavdevice   52. 2. 0 / 52. 2. 0
  libavfilter    1.17. 0 /  1.17. 0
  libswscale     0.10. 0 /  0.10. 0
  libpostproc   51. 2. 0 / 51. 2. 0
[matroska @ 0x14780c0]Estimating duration from bitrate, this may be inaccurate

Seems stream 0 codec frame rate differs from container frame rate: 47.95 (48000/1001) -> 23.98 (24000/1001)
Input #0, matroska, from 'M:\Videos\Movies\Continuum\Season 1\Continuum- S01E07
 - 720p HDTV x264 2HD.1.mkv':
  Duration: 00:43:58.52, start: 0.000000, bitrate: 384 kb/s
    Stream #0.0(eng): Video: h264, yuv420p, 1280x720, PAR 1:1 DAR 16:9, 24.39 fps, 23.98 tbr, 1k tbn, 47.95 tbc
    Stream #0.1: Audio: ac3, 48000 Hz, 5.1, s16, 384 kb/s
Output #0, mpegts, to 'pipe:':
    Stream #0.0(eng): Video: mpeg2video, yuv420p, 1280x720 [PAR 1:1 DAR 16:9], q=2-31, 16384 kb/s, 90k tbn, 23.98 tbc
    Stream #0.1: Audio: ac3, 48000 Hz, 5.1, 384 kb/s
Stream mapping:
  Stream #0.0 -> #0.0
  Stream #0.1 -> #0.1
Press [q] to stop encoding
frm=   785 fps=   7 q= 2.0 size=  134937kB time=   32.70 brt=33805.0kbps
**********************************************************

lrhorer is offline   Reply With Quote
Old 07-21-2012, 02:03 PM   #3580
lrhorer
Registered User
 
Join Date: Aug 2003
Location: San Antonio, Texas, USA
Posts: 6,867
Quote:
Originally Posted by wmcbrine View Post
Try the "shares" keyword in the appropriate _tivo_ section. But I don't know if that will affect Jukebox.
I tried that in various places, including in the [Server] section and under various specific TiVos. It seemed to have no effect.
lrhorer is offline   Reply With Quote
Old 07-21-2012, 02:39 PM   #3581
lrhorer
Registered User
 
Join Date: Aug 2003
Location: San Antonio, Texas, USA
Posts: 6,867
Quote:
Originally Posted by lpwcomp View Post
More accurately, they made everything "Pushed" copy protected.
'Same thing. Pulls are uploads.
lrhorer is offline   Reply With Quote
Old 07-21-2012, 02:54 PM   #3582
lpwcomp
Registered User
 
Join Date: May 2002
Location: John's Creek, Georgia
Posts: 5,121
Quote:
Originally Posted by lrhorer View Post
'Same thing. Pulls are uploads.
I know you never do this, but if you consider pulls by the TiVo from the PC to be uploads, then you have a different definition than the one I am familiar with.
__________________
James L. Sutherland
"You know TiVo users. Bunch of b****y little girls" TiVoAxe

"Jessica Fletcher visits Midsomer. Carnage ensues!"
lpwcomp is online now   Reply With Quote
Old 07-21-2012, 03:35 PM   #3583
wmcbrine
Resistance Useless
 
wmcbrine's Avatar
 
Join Date: Aug 2003
Posts: 9,019
Quote:
Originally Posted by johnjay829 View Post
DEBUG:pyTivo.video.transcode:M:\Programs\PyTivo\bin\ffmpeg.e xe -i M:\Videos\Movi
es\Continuum\Season 1\Continuum - S01E07 - 720p HDTV x264 2HD.1.mkv -vcodec mpeg
2video -b 16384k -maxrate 30000k -bufsize 4096k -ab 448k -ar 48000 -acodec copy
-copyts -map 0.0 -map 0.1 -f mpegts -
It looks like you're using the "ts=on" option. That mode is not expected to work correctly. Turn it off, and try again. If you still have problems, then post.

You might try forcing a reencode of the audio, though.
__________________

To view links or images in signatures your post count must be 10 or greater. You currently have 0 posts.
wmcbrine is offline   Reply With Quote
Old 07-21-2012, 07:34 PM   #3584
johnjay829
Registered User
 
Join Date: Jan 2007
Posts: 41
Quote:
Originally Posted by wmcbrine View Post
It looks like you're using the "ts=on" option. That mode is not expected to work correctly. Turn it off, and try again. If you still have problems, then post.

You might try forcing a reencode of the audio, though.
tried changing to off.. no luck.. removed the line completely same results. guess i am stuck with push only for now..
johnjay829 is offline   Reply With Quote
Old 07-21-2012, 07:36 PM   #3585
johnjay829
Registered User
 
Join Date: Jan 2007
Posts: 41
HTML Code:
INFO:pyTivo:Last modified: Wed Jul 11 00:43:42 2012
INFO:pyTivo:Python: 2.7.2
INFO:pyTivo:System: Windows-7-6.1.7601-SP1
INFO:pyTivo.beacon:Announcing shares...
INFO:pyTivo.beacon:Registering: Amaya and Savannah
INFO:pyTivo.beacon:Registering: Movies
INFO:pyTivo.beacon:Registering: Tivo Remux
INFO:pyTivo.beacon:Registering: Tv Shows
INFO:pyTivo.beacon:Registering: Workouts
INFO:pyTivo.beacon:Scanning for TiVos...
INFO:pyTivo.beacon:Bedroom
INFO:pyTivo.beacon:Van & MyMy
INFO:pyTivo.beacon:Living Room
INFO:pyTivo:pyTivo is ready.
INFO:pyTivo:192.168.1.13 [21/Jul/2012 20:17:28] "GET /TiVoConnect?Command=QueryContainer&Container=%2F&DoGenres=1 HTTP/1.0" 200 -
INFO:pyTivo:192.168.1.8 [21/Jul/2012 20:17:28] "GET /TiVoConnect?Command=QueryContainer&Container=%2F&DoGenres=1 HTTP/1.0" 200 -
INFO:pyTivo:192.168.1.11 [21/Jul/2012 20:17:28] "GET /TiVoConnect?Command=QueryContainer&Container=%2F&DoGenres=1 HTTP/1.0" 200 -
INFO:pyTivo:192.168.1.14 [21/Jul/2012 20:17:29] "GET /TiVoConnect?Command=QueryContainer&Container=%2F HTTP/1.0" 200 -
INFO:pyTivo:192.168.1.11 [21/Jul/2012 20:18:00] "GET /TiVoConnect?Command=QueryFormats&SourceFormat=video%2Fx-tivo-mpeg HTTP/1.1" 200 -
INFO:pyTivo:192.168.1.11 [21/Jul/2012 20:18:00] "GET /TiVoConnect?Command=QueryContainer&Container=Movies&SortOrder=!CaptureDate&ItemCount=8&Filter=x-tivo-conta
iner%2Ftivo-videos,x-tivo-container%2Ffolder,video%2Fx-tivo-mpeg,video%2F*&SerialNum=748001190436551 HTTP/1.1" 200 -
INFO:pyTivo:192.168.1.11 [21/Jul/2012 20:18:02] "GET /TiVoConnect?Command=QueryFormats&SourceFormat=video%2Fx-tivo-mpeg HTTP/1.1" 200 -
DEBUG:pyTivo.video.transcode:starting ffmpeg, will wait 10 seconds for it to complete
DEBUG:pyTivo.video.transcode:ffmpeg output=FFmpeg version SVN-r21659-rdian06-1.02-win-x86_32, Copyright (c) 2000-2010 Fabrice Bellard, et al.
  built on Aug 24 2010 20:46:16 with gcc 4.4.0
  configuration: --enable-memalign-hack --disable-debug --enable-hardcoded-tables --enable-runtime-cpudetect --enable-static --disable-shared --disable-ffserver
 --disable-ffplay --enable-gpl --enable-pthreads --enable-libmp3lame --enable-libvorbis --enable-libtheora --enable-libspeex --enable-libgsm --enable-libx264 --
enable-libschroedinger --enable-libfaad --enable-libxvid --disable-decoder=aac --enable-avisynth --enable-postproc --enable-avfilter --enable-avfilter-lavf
  libavutil     50. 8. 0 / 50. 8. 0
  libavcodec    52.52. 0 / 52.52. 0
  libavformat   52.50. 0 / 52.50. 0
  libavdevice   52. 2. 0 / 52. 2. 0
  libavfilter    1.17. 0 /  1.17. 0
  libswscale     0.10. 0 /  0.10. 0
  libpostproc   51. 2. 0 / 51. 2. 0
[mpeg4 @ 0x14ce390]Invalid and inefficient vfw-avi packed B frames detected
Input #0, avi, from 'M:\Videos\Movies\Dr Seuss The Lorax (2012)\Dr Seuss The Lorax (2012).avi':
  Metadata:
    ISFT            : Nandub v1.0rc2
  Duration: 01:22:47.20, start: 0.000000, bitrate: 1664 kb/s
    Stream #0.0: Video: mpeg4, yuv420p, 720x384 [PAR 1:1 DAR 15:8], 25 tbr, 25 tbn, 25 tbc
    Stream #0.1: Audio: ac3, 48000 Hz, stereo, s16, 256 kb/s
At least one output file must be specified

DEBUG:pyTivo.video.transcode:aFreq=48000; aCh=2; container=avi; kbps=1664; mapAudio=[('0.1', ' ac3, 48000 Hz, stereo, s16, 256 kb/s\r')]; vHeight=384; vCodec=mp
eg4; Supported=True; aKbps=256; par=None; millisecs=4967200; vFps=25.00; par2=1.0; par1=1:1; mapVideo=0.0; vWidth=720; dar1=15:8; rawmeta={'ISFT': [u'Nandub v1.
0rc2']}; aCodec=ac3
DEBUG:pyTivo.video.transcode:CACHE HIT! M:\Videos\Movies\Dr Seuss The Lorax (2012)\Dr Seuss The Lorax (2012).avi
DEBUG:pyTivo.video.transcode:CACHE HIT! M:\Videos\Movies\Dr Seuss The Lorax (2012)\Dr Seuss The Lorax (2012).avi
DEBUG:pyTivo.video.transcode:TRANSCODE=YES, vCodec mpeg4 not compatible, M:\Videos\Movies\Dr Seuss The Lorax (2012)\Dr Seuss The Lorax (2012).avi
DEBUG:pyTivo.video.transcode:CACHE HIT! M:\Videos\Movies\Dr Seuss The Lorax (2012)\Dr Seuss The Lorax (2012).avi
DEBUG:pyTivo.video.transcode:CACHE HIT! M:\Videos\Movies\Dr Seuss The Lorax (2012)\Dr Seuss The Lorax (2012).avi
DEBUG:pyTivo.video.transcode:CACHE HIT! M:\Videos\Movies\Dr Seuss The Lorax (2012)\Dr Seuss The Lorax (2012).avi
DEBUG:pyTivo.video.transcode:CACHE HIT! M:\Videos\Movies\Dr Seuss The Lorax (2012)\Dr Seuss The Lorax (2012).avi
DEBUG:pyTivo.video.transcode:tsn: 748001190436551
DEBUG:pyTivo.video.transcode:aspect169: True
DEBUG:pyTivo.video.transcode:optres: False
DEBUG:pyTivo.video.transcode:File=M:\Videos\Movies\Dr Seuss The Lorax (2012)\Dr Seuss The Lorax (2012).avi vCodec=mpeg4 vWidth=720 vHeight=384 vFps=25.00 millis
ecs=4967200 TIVO_HEIGHT=1080 TIVO_WIDTH=1920
DEBUG:pyTivo.video.transcode:CACHE HIT! M:\Videos\Movies\Dr Seuss The Lorax (2012)\Dr Seuss The Lorax (2012).avi
DEBUG:pyTivo.video.transcode:CACHE HIT! M:\Videos\Movies\Dr Seuss The Lorax (2012)\Dr Seuss The Lorax (2012).avi
DEBUG:pyTivo.video.transcode:CACHE HIT! M:\Videos\Movies\Dr Seuss The Lorax (2012)\Dr Seuss The Lorax (2012).avi
DEBUG:pyTivo.video.transcode:CACHE HIT! M:\Videos\Movies\Dr Seuss The Lorax (2012)\Dr Seuss The Lorax (2012).avi
DEBUG:pyTivo.video.transcode:audio_lang: None
DEBUG:pyTivo.video.transcode:selected audio stream: 0.1
DEBUG:pyTivo.video.transcode:CACHE HIT! M:\Videos\Movies\Dr Seuss The Lorax (2012)\Dr Seuss The Lorax (2012).avi
DEBUG:pyTivo.video.transcode:CACHE HIT! M:\Videos\Movies\Dr Seuss The Lorax (2012)\Dr Seuss The Lorax (2012).avi
DEBUG:pyTivo.video.transcode:TRANSCODE=YES, vCodec mpeg4 not compatible, M:\Videos\Movies\Dr Seuss The Lorax (2012)\Dr Seuss The Lorax (2012).avi
DEBUG:pyTivo.video.transcode:CACHE HIT! M:\Videos\Movies\Dr Seuss The Lorax (2012)\Dr Seuss The Lorax (2012).avi
DEBUG:pyTivo.video.transcode:CACHE HIT! M:\Videos\Movies\Dr Seuss The Lorax (2012)\Dr Seuss The Lorax (2012).avi
INFO:pyTivo:192.168.1.11 [21/Jul/2012 20:18:02] "GET /TiVoConnect?Command=QueryContainer&Container=Movies%2FDr%20Seuss%20The%20Lorax%20(2012)&SortOrder=!Capture
Date&ItemCount=8&Filter=x-tivo-container%2Ftivo-videos,x-tivo-container%2Ffolder,video%2Fx-tivo-mpeg,video%2F*&SerialNum=748001190436551 HTTP/1.1" 200 -
INFO:pyTivo:192.168.1.11 [21/Jul/2012 20:18:04] "GET /TiVoConnect?Command=QueryFormats&SourceFormat=video%2Fx-tivo-mpeg HTTP/1.1" 200 -
DEBUG:pyTivo.video.transcode:CACHE HIT! M:\Videos\Movies\Dr Seuss The Lorax (2012)\Dr Seuss The Lorax (2012).avi
DEBUG:pyTivo.video.transcode:CACHE HIT! M:\Videos\Movies\Dr Seuss The Lorax (2012)\Dr Seuss The Lorax (2012).avi
DEBUG:pyTivo.video.transcode:CACHE HIT! M:\Videos\Movies\Dr Seuss The Lorax (2012)\Dr Seuss The Lorax (2012).avi
DEBUG:pyTivo.video.transcode:TRANSCODE=YES, vCodec mpeg4 not compatible, M:\Videos\Movies\Dr Seuss The Lorax (2012)\Dr Seuss The Lorax (2012).avi
DEBUG:pyTivo.video.transcode:CACHE HIT! M:\Videos\Movies\Dr Seuss The Lorax (2012)\Dr Seuss The Lorax (2012).avi
DEBUG:pyTivo.video.transcode:CACHE HIT! M:\Videos\Movies\Dr Seuss The Lorax (2012)\Dr Seuss The Lorax (2012).avi
DEBUG:pyTivo.video.transcode:CACHE HIT! M:\Videos\Movies\Dr Seuss The Lorax (2012)\Dr Seuss The Lorax (2012).avi
DEBUG:pyTivo.video.transcode:CACHE HIT! M:\Videos\Movies\Dr Seuss The Lorax (2012)\Dr Seuss The Lorax (2012).avi
DEBUG:pyTivo.video.transcode:tsn: 748001190436551
DEBUG:pyTivo.video.transcode:aspect169: True
DEBUG:pyTivo.video.transcode:optres: False
DEBUG:pyTivo.video.transcode:File=M:\Videos\Movies\Dr Seuss The Lorax (2012)\Dr Seuss The Lorax (2012).avi vCodec=mpeg4 vWidth=720 vHeight=384 vFps=25.00 millis
ecs=4967200 TIVO_HEIGHT=1080 TIVO_WIDTH=1920
DEBUG:pyTivo.video.transcode:CACHE HIT! M:\Videos\Movies\Dr Seuss The Lorax (2012)\Dr Seuss The Lorax (2012).avi
DEBUG:pyTivo.video.transcode:CACHE HIT! M:\Videos\Movies\Dr Seuss The Lorax (2012)\Dr Seuss The Lorax (2012).avi
DEBUG:pyTivo.video.transcode:CACHE HIT! M:\Videos\Movies\Dr Seuss The Lorax (2012)\Dr Seuss The Lorax (2012).avi
DEBUG:pyTivo.video.transcode:CACHE HIT! M:\Videos\Movies\Dr Seuss The Lorax (2012)\Dr Seuss The Lorax (2012).avi
DEBUG:pyTivo.video.transcode:audio_lang: None
DEBUG:pyTivo.video.transcode:selected audio stream: 0.1
DEBUG:pyTivo.video.transcode:CACHE HIT! M:\Videos\Movies\Dr Seuss The Lorax (2012)\Dr Seuss The Lorax (2012).avi
DEBUG:pyTivo.video.transcode:CACHE HIT! M:\Videos\Movies\Dr Seuss The Lorax (2012)\Dr Seuss The Lorax (2012).avi
DEBUG:pyTivo.video.transcode:TRANSCODE=YES, vCodec mpeg4 not compatible, M:\Videos\Movies\Dr Seuss The Lorax (2012)\Dr Seuss The Lorax (2012).avi
DEBUG:pyTivo.video.transcode:CACHE HIT! M:\Videos\Movies\Dr Seuss The Lorax (2012)\Dr Seuss The Lorax (2012).avi
DEBUG:pyTivo.video.transcode:CACHE HIT! M:\Videos\Movies\Dr Seuss The Lorax (2012)\Dr Seuss The Lorax (2012).avi
INFO:pyTivo:192.168.1.11 [21/Jul/2012 20:18:04] "GET /TiVoConnect?Command=QueryContainer&Container=Movies%2FDr%20Seuss%20The%20Lorax%20(2012)&SortOrder=!Capture
Date&ItemCount=1&AnchorItem=%2FMovies%2FDr%2520Seuss%2520The%2520Lorax%2520%25282012%2529%2FDr%2520Seuss%2520The%2520Lorax%2520%25282012%2529.avi&AnchorOffset=-
1&Filter=x-tivo-container%2Ftivo-videos,x-tivo-container%2Ffolder,video%2Fx-tivo-mpeg,video%2F*&SerialNum=748001190436551 HTTP/1.1" 200 -
DEBUG:pyTivo.video.transcode:CACHE HIT! M:\Videos\Movies\Dr Seuss The Lorax (2012)\Dr Seuss The Lorax (2012).avi
DEBUG:pyTivo.video.transcode:CACHE HIT! M:\Videos\Movies\Dr Seuss The Lorax (2012)\Dr Seuss The Lorax (2012).avi
DEBUG:pyTivo.video.transcode:CACHE HIT! M:\Videos\Movies\Dr Seuss The Lorax (2012)\Dr Seuss The Lorax (2012).avi
DEBUG:pyTivo.video.transcode:TRANSCODE=YES, vCodec mpeg4 not compatible, M:\Videos\Movies\Dr Seuss The Lorax (2012)\Dr Seuss The Lorax (2012).avi
DEBUG:pyTivo.video.transcode:CACHE HIT! M:\Videos\Movies\Dr Seuss The Lorax (2012)\Dr Seuss The Lorax (2012).avi
DEBUG:pyTivo.video.transcode:CACHE HIT! M:\Videos\Movies\Dr Seuss The Lorax (2012)\Dr Seuss The Lorax (2012).avi
DEBUG:pyTivo.video.transcode:CACHE HIT! M:\Videos\Movies\Dr Seuss The Lorax (2012)\Dr Seuss The Lorax (2012).avi
DEBUG:pyTivo.video.transcode:CACHE HIT! M:\Videos\Movies\Dr Seuss The Lorax (2012)\Dr Seuss The Lorax (2012).avi
DEBUG:pyTivo.video.transcode:tsn: 748001190436551
DEBUG:pyTivo.video.transcode:aspect169: True
DEBUG:pyTivo.video.transcode:optres: False
DEBUG:pyTivo.video.transcode:File=M:\Videos\Movies\Dr Seuss The Lorax (2012)\Dr Seuss The Lorax (2012).avi vCodec=mpeg4 vWidth=720 vHeight=384 vFps=25.00 millis
ecs=4967200 TIVO_HEIGHT=1080 TIVO_WIDTH=1920
DEBUG:pyTivo.video.transcode:CACHE HIT! M:\Videos\Movies\Dr Seuss The Lorax (2012)\Dr Seuss The Lorax (2012).avi
DEBUG:pyTivo.video.transcode:CACHE HIT! M:\Videos\Movies\Dr Seuss The Lorax (2012)\Dr Seuss The Lorax (2012).avi
DEBUG:pyTivo.video.transcode:CACHE HIT! M:\Videos\Movies\Dr Seuss The Lorax (2012)\Dr Seuss The Lorax (2012).avi
DEBUG:pyTivo.video.transcode:CACHE HIT! M:\Videos\Movies\Dr Seuss The Lorax (2012)\Dr Seuss The Lorax (2012).avi
DEBUG:pyTivo.video.transcode:audio_lang: None
DEBUG:pyTivo.video.transcode:selected audio stream: 0.1
DEBUG:pyTivo.video.transcode:CACHE HIT! M:\Videos\Movies\Dr Seuss The Lorax (2012)\Dr Seuss The Lorax (2012).avi
DEBUG:pyTivo.video.transcode:CACHE HIT! M:\Videos\Movies\Dr Seuss The Lorax (2012)\Dr Seuss The Lorax (2012).avi
DEBUG:pyTivo.video.transcode:TRANSCODE=YES, vCodec mpeg4 not compatible, M:\Videos\Movies\Dr Seuss The Lorax (2012)\Dr Seuss The Lorax (2012).avi
DEBUG:pyTivo.video.transcode:CACHE HIT! M:\Videos\Movies\Dr Seuss The Lorax (2012)\Dr Seuss The Lorax (2012).avi
DEBUG:pyTivo.video.transcode:CACHE HIT! M:\Videos\Movies\Dr Seuss The Lorax (2012)\Dr Seuss The Lorax (2012).avi
INFO:pyTivo:192.168.1.11 [21/Jul/2012 20:18:04] "GET /TiVoConnect?Command=TVBusQuery&Container=Movies&File=%2FDr%20Seuss%20The%20Lorax%20(2012)%2FDr%20Seuss%20T
he%20Lorax%20(2012).avi&SerialNum=748001190436551 HTTP/1.1" 200 -
DEBUG:pyTivo.video.transcode:CACHE HIT! M:\Videos\Movies\Dr Seuss The Lorax (2012)\Dr Seuss The Lorax (2012).avi
DEBUG:pyTivo.video.transcode:TRANSCODE=YES, vCodec mpeg4 not compatible, M:\Videos\Movies\Dr Seuss The Lorax (2012)\Dr Seuss The Lorax (2012).avi
INFO:pyTivo:192.168.1.11 [21/Jul/2012 20:18:06] "GET /Movies/Dr%20Seuss%20The%20Lorax%20(2012)/Dr%20Seuss%20The%20Lorax%20(2012).avi?Format=video%2Fx-tivo-mpeg
HTTP/1.1" 206 -
INFO:pyTivo.video.video:[21/Jul/2012 20:18:06] Start sending "M:\Videos\Movies\Dr Seuss The Lorax (2012)\Dr Seuss The Lorax (2012).avi" to Living Room
DEBUG:pyTivo.video.video:"M:\Videos\Movies\Dr Seuss The Lorax (2012)\Dr Seuss The Lorax (2012).avi" is not tivo compatible
DEBUG:pyTivo.video.transcode:CACHE HIT! M:\Videos\Movies\Dr Seuss The Lorax (2012)\Dr Seuss The Lorax (2012).avi
DEBUG:pyTivo.video.transcode:CACHE HIT! M:\Videos\Movies\Dr Seuss The Lorax (2012)\Dr Seuss The Lorax (2012).avi
DEBUG:pyTivo.video.transcode:CACHE HIT! M:\Videos\Movies\Dr Seuss The Lorax (2012)\Dr Seuss The Lorax (2012).avi
DEBUG:pyTivo.video.transcode:CACHE HIT! M:\Videos\Movies\Dr Seuss The Lorax (2012)\Dr Seuss The Lorax (2012).avi
DEBUG:pyTivo.video.transcode:tsn: 748001190436551
DEBUG:pyTivo.video.transcode:aspect169: True
DEBUG:pyTivo.video.transcode:optres: False
DEBUG:pyTivo.video.transcode:File=M:\Videos\Movies\Dr Seuss The Lorax (2012)\Dr Seuss The Lorax (2012).avi vCodec=mpeg4 vWidth=720 vHeight=384 vFps=25.00 millis
ecs=4967200 TIVO_HEIGHT=1080 TIVO_WIDTH=1920
DEBUG:pyTivo.video.transcode:CACHE HIT! M:\Videos\Movies\Dr Seuss The Lorax (2012)\Dr Seuss The Lorax (2012).avi
DEBUG:pyTivo.video.transcode:CACHE HIT! M:\Videos\Movies\Dr Seuss The Lorax (2012)\Dr Seuss The Lorax (2012).avi
DEBUG:pyTivo.video.transcode:CACHE HIT! M:\Videos\Movies\Dr Seuss The Lorax (2012)\Dr Seuss The Lorax (2012).avi
DEBUG:pyTivo.video.transcode:CACHE HIT! M:\Videos\Movies\Dr Seuss The Lorax (2012)\Dr Seuss The Lorax (2012).avi
DEBUG:pyTivo.video.transcode:audio_lang: None
DEBUG:pyTivo.video.transcode:selected audio stream: 0.1
DEBUG:pyTivo.video.transcode:transcoding to tivo model 748 using ffmpeg command:
DEBUG:pyTivo.video.transcode:M:\Programs\PyTivo\bin\ffmpeg.exe -i M:\Videos\Movies\Dr Seuss The Lorax (2012)\Dr Seuss The Lorax (2012).avi -vcodec mpeg2video -b
 16384k -maxrate 30000k -bufsize 4096k -ab 448k -ar 48000 -acodec copy -copyts -map 0.0 -map 0.1 -f vob -
FFmpeg version SVN-r21659-rdian06-1.02-win-x86_32, Copyright (c) 2000-2010 Fabrice Bellard, et al.
  built on Aug 24 2010 20:46:16 with gcc 4.4.0
  configuration: --enable-memalign-hack --disable-debug --enable-hardcoded-tables --enable-runtime-cpudetect --enable-static --disable-shared --disable-ffserver
 --disable-ffplay --enable-gpl --enable-pthreads --enable-libmp3lame --enable-libvorbis --enable-libtheora --enable-libspeex --enable-libgsm --enable-libx264 --
enable-libschroedinger --enable-libfaad --enable-libxvid --disable-decoder=aac --enable-avisynth --enable-postproc --enable-avfilter --enable-avfilter-lavf
  libavutil     50. 8. 0 / 50. 8. 0
  libavcodec    52.52. 0 / 52.52. 0
  libavformat   52.50. 0 / 52.50. 0
  libavdevice   52. 2. 0 / 52. 2. 0
  libavfilter    1.17. 0 /  1.17. 0
  libswscale     0.10. 0 /  0.10. 0
  libpostproc   51. 2. 0 / 51. 2. 0
[mpeg4 @ 0x2ff1390]Invalid and inefficient vfw-avi packed B frames detected
Input #0, avi, from 'M:\Videos\Movies\Dr Seuss The Lorax (2012)\Dr Seuss The Lorax (2012).avi':
  Metadata:
    ISFT            : Nandub v1.0rc2
  Duration: 01:22:47.20, start: 0.000000, bitrate: 1664 kb/s
    Stream #0.0: Video: mpeg4, yuv420p, 720x384 [PAR 1:1 DAR 15:8], 25 tbr, 25 tbn, 25 tbc
    Stream #0.1: Audio: ac3, 48000 Hz, stereo, s16, 256 kb/s
Output #0, vob, to 'pipe:':
    Stream #0.0: Video: mpeg2video, yuv420p, 720x384 [PAR 1:1 DAR 15:8], q=2-31, 16384 kb/s, 90k tbn, 25 tbc
    Stream #0.1: Audio: ac3, 48000 Hz, stereo, 256 kb/s
Stream mapping:
  Stream #0.0 -> #0.0
  Stream #0.1 -> #0.1
Press [q] to stop encoding
[mpeg4 @ 0x2ff1390]Invalid and inefficient vfw-avi packed B frames detected
[vob @ 0x188ba80]st:1 error, non monotone timestamps 98654400 > 98653140
av_interleaved_write_frame(): Error while opening file
INFO:pyTivo.video.video:[21/Jul/2012 20:23:06] Done sending "M:\Videos\Movies\Dr Seuss The Lorax (2012)\Dr Seuss The Lorax (2012).avi" to Living Room, 457494528
 bytes, 11.63 Mb/s

johnjay829 is offline   Reply With Quote
Old 07-21-2012, 08:55 PM   #3586
wmcbrine
Resistance Useless
 
wmcbrine's Avatar
 
Join Date: Aug 2003
Posts: 9,019
Quote:
Originally Posted by johnjay829 View Post
tried changing to off.. no luck.. removed the line completely same results. guess i am stuck with push only for now..
You're missing the other thing I said. Try forcing a reencode of the audio.
__________________

To view links or images in signatures your post count must be 10 or greater. You currently have 0 posts.
wmcbrine is offline   Reply With Quote
Old 07-22-2012, 03:37 PM   #3587
johnjay829
Registered User
 
Join Date: Jan 2007
Posts: 41
Quote:
Originally Posted by wmcbrine View Post
You're missing the other thing I said. Try forcing a reencode of the audio.
sorry i did miss that part.. but i have no idea how to reencode the audio
johnjay829 is offline   Reply With Quote
Old 07-22-2012, 04:49 PM   #3588
wmcbrine
Resistance Useless
 
wmcbrine's Avatar
 
Join Date: Aug 2003
Posts: 9,019
Quote:
Originally Posted by johnjay829 View Post
sorry i did miss that part.. but i have no idea how to reencode the audio
https://www.google.com/search?q=override_acodec
__________________

To view links or images in signatures your post count must be 10 or greater. You currently have 0 posts.
wmcbrine is offline   Reply With Quote
Old 07-22-2012, 08:11 PM   #3589
johnjay829
Registered User
 
Join Date: Jan 2007
Posts: 41
Quote:
Originally Posted by wmcbrine View Post
thanks for the help added:
Override_vCodec: foo
Override_aCodec: bar

right in my conf file, but no change tried the same movie again stopped about 12 mins into the transfer
johnjay829 is offline   Reply With Quote
Old 07-22-2012, 08:30 PM   #3590
lpwcomp
Registered User
 
Join Date: May 2002
Location: John's Creek, Georgia
Posts: 5,121
Quote:
Originally Posted by johnjay829 View Post
thanks for the help added:
Override_vCodec: foo
Override_aCodec: bar

right in my conf file, but no change tried the same movie again stopped about 12 mins into the transfer
Well, the post in pyTivo forum says the override goes in the metadata file for the recording, not the pyTivo conf file. The syntax is definitely metadata form.
__________________
James L. Sutherland
"You know TiVo users. Bunch of b****y little girls" TiVoAxe

"Jessica Fletcher visits Midsomer. Carnage ensues!"
lpwcomp is online now   Reply With Quote
Old 07-23-2012, 11:12 AM   #3591
lrhorer
Registered User
 
Join Date: Aug 2003
Location: San Antonio, Texas, USA
Posts: 6,867
Quote:
Originally Posted by lpwcomp View Post
I know you never do this, but if you consider pulls by the TiVo from the PC to be uploads, then you have a different definition than the one I am familiar with.
How would that be anything but an upload? An upload occurs when one transfers data to the local host, in this case the TiVo, from a remote host. A download occurs when one transfers data to a remote host from the local host.

Definitions aside, however, anything transferred via the mind server agent is marked as copy protected.
lrhorer is offline   Reply With Quote
Old 07-23-2012, 12:27 PM   #3592
lpwcomp
Registered User
 
Join Date: May 2002
Location: John's Creek, Georgia
Posts: 5,121
Quote:
Originally Posted by lrhorer View Post
How would that be anything but an upload? An upload occurs when one transfers data to the local host, in this case the TiVo, from a remote host. A download occurs when one transfers data to a remote host from the local host.
You download "from". You upload "to". IOW, the direction of the transfer determines whether a host considers it a download or an upload. In this particular case, from the standpoint of the TiVo, both a "Push" and "Pull" are downloads from the PC.

Quote:
Originally Posted by lrhorer View Post
Definitions aside, however, anything transferred via the mind server agent is marked as copy protected.
On that we can agree. It also seems to apply to anything directly downloaded by the TiVo from the Web, although that may because it uses TiVo server. I have no idea.
__________________
James L. Sutherland
"You know TiVo users. Bunch of b****y little girls" TiVoAxe

"Jessica Fletcher visits Midsomer. Carnage ensues!"
lpwcomp is online now   Reply With Quote
Old 07-23-2012, 04:12 PM   #3593
gonzotek
tivo_xml developer
 
gonzotek's Avatar
 
Join Date: Sep 2004
Location: Outside Phildadelphia
Posts: 2,215
Quote:
Originally Posted by lrhorer View Post
How would that be anything but an upload? An upload occurs when one transfers data to the local host, in this case the TiVo, from a remote host. A download occurs when one transfers data to a remote host from the local host.

Definitions aside, however, anything transferred via the mind server agent is marked as copy protected.
I've never seen a transfer of data from a local host to a remote host be described as a download. For instance, if a user were installing a new web browser on their laptop, it would be correct to say:
"I downloaded Google Chrome from Google's website today."
While it would be incorrect to say
"I uploaded Google Chrome from Google's website today."

Another example would be a user wishing to place a video on Youtube for sharing with others:
They would not 'download the video to YouTube", but would instead "upload it to YouTube".
__________________
Follow @pytivo on Twitter for project updates and more!
To view links or images in signatures your post count must be 10 or greater. You currently have 0 posts.
|
To view links or images in signatures your post count must be 10 or greater. You currently have 0 posts.
A Web app for Roku Remote Control
gonzotek is offline   Reply With Quote
Old 07-23-2012, 04:40 PM   #3594
johnjay829
Registered User
 
Join Date: Jan 2007
Posts: 41
Quote:
Originally Posted by lpwcomp View Post
Well, the post in pyTivo forum says the override goes in the metadata file for the recording, not the pyTivo conf file. The syntax is definitely metadata form.
wow i need to give up lol.. added to metadata for testing.. thanks for the help
johnjay829 is offline   Reply With Quote
Old 07-23-2012, 05:36 PM   #3595
wmcbrine
Resistance Useless
 
wmcbrine's Avatar
 
Join Date: Aug 2003
Posts: 9,019
I always knew that lrhorer lived in a world of his own, where up is down.
__________________

To view links or images in signatures your post count must be 10 or greater. You currently have 0 posts.
wmcbrine is offline   Reply With Quote
Old 07-24-2012, 09:27 PM   #3596
lrhorer
Registered User
 
Join Date: Aug 2003
Location: San Antonio, Texas, USA
Posts: 6,867
Quote:
Originally Posted by wmcbrine View Post
I always knew that lrhorer lived in a world of his own, where up is down.
No, I live in the real universe, where there is no such thing as "up" or "down", only arbitrarily applied coordinate systems - unless of course you wish to speak of parity violations in weak force interactions. 'Bit off-topic, that, however.
lrhorer is offline   Reply With Quote
Old 07-25-2012, 12:33 AM   #3597
Soapm
Registered User
 
Soapm's Avatar
 
Join Date: May 2007
Location: So close, yet too far away
Posts: 1,475
Yo wmcbrine, just curious, when I'm browsing my video server from my premier Tivo, lets say I select a show and start it downloading I notice when I back out of the show I am still in the same place in the list of video's on my server.

However, when I back out on my TivoHD it seems to default back to the first page of the video's which forces me to page down a few pages to get back where I was. Any idea why that happens?

I guess anyone can answer the question...
Soapm is offline   Reply With Quote
Old 07-25-2012, 02:09 AM   #3598
wmcbrine
Resistance Useless
 
wmcbrine's Avatar
 
Join Date: Aug 2003
Posts: 9,019
I do have an idea, but it's complicated to explain.
__________________

To view links or images in signatures your post count must be 10 or greater. You currently have 0 posts.
wmcbrine is offline   Reply With Quote
Old 07-26-2012, 01:25 AM   #3599
Soapm
Registered User
 
Soapm's Avatar
 
Join Date: May 2007
Location: So close, yet too far away
Posts: 1,475
Quote:
Originally Posted by wmcbrine View Post
I do have an idea, but it's complicated to explain.
To make it less technical, can it be fixed or is it behavior I have to live with.
Soapm is offline   Reply With Quote
Old 07-26-2012, 02:42 AM   #3600
wmcbrine
Resistance Useless
 
wmcbrine's Avatar
 
Join Date: Aug 2003
Posts: 9,019
I don't know yet. Sorry.
__________________

To view links or images in signatures your post count must be 10 or greater. You currently have 0 posts.
wmcbrine is offline   Reply With Quote
Reply
Forum Jump




Thread Tools


Posting Rules
You may not post new threads
You may not post replies
You may not post attachments
You may not edit your posts

vB code is On
Smilies are On
[IMG] code is On
HTML code is Off

Advertisements

TiVo Community
Powered by vBulletin® Version 3.6.8
Copyright ©2000 - 2014, Jelsoft Enterprises Ltd.
vBulletin Skins by: Relivo Media

(C) 2013 Magenium Solutions - All Rights Reserved. No information may be posted elsewhere without written permission.
TiVoŽ is a registered trademark of TiVo Inc. This site is not owned or operated by TiVo Inc.
All times are GMT -5. The time now is 08:46 PM.
OUR NETWORK: MyOpenRouter | TechLore | SansaCommunity | RoboCommunity | MediaSmart Home | Explore3DTV | Dijit Community | DVR Playground |