TiVo Community
TiVo Community
TiVo Community
Go Back   TiVo Community > Main TiVo Forums > TiVo Home Media Features & TiVoToGo
TiVo Community
Reply
Forum Jump
 
Thread Tools
Old 09-03-2013, 02:38 AM   #4441
wmcbrine
Resistance Useless
 
wmcbrine's Avatar
 
Join Date: Aug 2003
Posts: 9,019
ts = on isn't relevant to pushes. But you can push MP4s regardless of that setting. pyTivo should be making an MP4 of that... hmm... try starting with the version where you already converted the soundtrack to AC3?
__________________

To view links or images in signatures your post count must be 10 or greater. You currently have 0 posts.
wmcbrine is online now   Reply With Quote
Old 09-03-2013, 01:31 PM   #4442
Soapm
Registered User
 
Soapm's Avatar
 
Join Date: May 2007
Location: So close, yet too far away
Posts: 1,475
Quote:
Originally Posted by wmcbrine View Post
ts = on isn't relevant to pushes. But you can push MP4s regardless of that setting. pyTivo should be making an MP4 of that... hmm... try starting with the version where you already converted the soundtrack to AC3?

It worked on the version with the sound converted to ac3.

Code:
Output #0, mp4, to '/video/Hill Street/07/edited, A_ac3.mkv.pyTivo-temp':
  Metadata:
    encoder         : Lavf54.29.104
    Chapter #0.0: start 0.000000, end 2797.792000
    Metadata:
      title           : Chapter 01
    Stream #0:0(eng): Video: h264 ([33][0][0][0] / 0x0021), yuv420p, 720x480 [SAR 8:9 DAR 4:3], q=2-31, 23.98 fps, 1k tbn, 1k tbc (default)
    Stream #0:1: Audio: ac3 ([165][0][0][0] / 0x00A5), 48000 Hz, stereo, 448 kb/s (default) (forced)
Stream mapping:
  Stream #0:0 -> #0:0 (copy)
  Stream #0:1 -> #0:1 (copy)
I repushed the original and it now looks different also.

Code:
Output #0, mp4, to '/video/Hill Street/07/eddited, A.mkv.pyTivo-temp':
  Metadata:
    encoder         : Lavf54.29.104
    Chapter #0.0: start 0.000000, end 2797.770000
    Metadata:
      title           : Chapter 01
    Stream #0:0(eng): Video: h264 ([33][0][0][0] / 0x0021), yuv420p, 720x480 [SAR 8:9 DAR 4:3], q=2-31, 23.98 fps, 1k tbn, 1k tbc (default)
    Stream #0:1: Audio: ac3 ([165][0][0][0] / 0x00A5), 48000 Hz, stereo, flt, 448 kb/s (default)
Stream mapping:
  Stream #0:0 -> #0:0 (copy)
  Stream #0:1 -> #0:1 (mp3 -> ac3)
Press [q] to stop, [?] for help


Last edited by Soapm : 09-03-2013 at 01:43 PM.
Soapm is offline   Reply With Quote
Old 09-03-2013, 01:37 PM   #4443
wmcbrine
Resistance Useless
 
wmcbrine's Avatar
 
Join Date: Aug 2003
Posts: 9,019
So does it look any better?
__________________

To view links or images in signatures your post count must be 10 or greater. You currently have 0 posts.
wmcbrine is online now   Reply With Quote
Old 09-03-2013, 01:43 PM   #4444
Soapm
Registered User
 
Soapm's Avatar
 
Join Date: May 2007
Location: So close, yet too far away
Posts: 1,475
Quote:
Originally Posted by wmcbrine View Post
So does it look any better?
Can't watch it yet, says I have to wait about 2 hours before i can look at it.

Edited...

Whoops.. i have to change my response, it never actually pushed to the Tivo. According to the logs this is all it did then it stopped.

Code:
Output #0, mp4, to '/video/Hill Street/07/edited, A_ac3.mkv.pyTivo-temp':
  Metadata:
    encoder         : Lavf54.29.104
    Chapter #0.0: start 0.000000, end 2797.792000
    Metadata:
      title           : Chapter 01
    Stream #0:0(eng): Video: h264 ([33][0][0][0] / 0x0021), yuv420p, 720x480 [SAR 8:9 DAR 4:3], q=2-31, 23.98 fps, 1k tbn, 1k tbc (default)
    Stream #0:1: Audio: ac3 ([165][0][0][0] / 0x00A5), 48000 Hz, stereo, 448 kb/s (default) (forced)
Stream mapping:
  Stream #0:0 -> #0:0 (copy)
  Stream #0:1 -> #0:1 (copy)
Press [q] to stop, [?] for help
frame= 4451 fps=0.0 q=-1.0 size=   31340kB time=00:02:28.60 bitrate=1727.6kbits/s    
frame= 8586 fps=8585 q=-1.0 size=   66354kB time=00:04:46.59 bitrate=1896.7kbits/s    
frame=11681 fps=7786 q=-1.0 size=   91432kB time=00:06:29.85 bitrate=1921.3kbits/s    
frame=14765 fps=7381 q=-1.0 size=  112910kB time=00:08:12.76 bitrate=1877.1kbits/s    
frame=17585 fps=7014 q=-1.0 size=  132933kB time=00:09:46.97 bitrate=1855.3kbits/s    
frame=19370 fps=6442 q=-1.0 size=  147118kB time=00:10:46.36 bitrate=1864.6kbits/s    
frame=21571 fps=6150 q=-1.0 size=  165402kB time=00:11:59.90 bitrate=1882.2kbits/s    
frame=23419 fps=5844 q=-1.0 size=  184213kB time=00:13:01.47 bitrate=1931.1kbits/s    
frame=25907 fps=5745 q=-1.0 size=  202390kB time=00:14:24.54 bitrate=1917.7kbits/s    
frame=27985 fps=5587 q=-1.0 size=  215313kB time=00:15:33.92 bitrate=1888.6kbits/s    
frame=30196 fps=5481 q=-1.0 size=  233871kB time=00:16:47.71 bitrate=1901.2kbits/s    
frame=31153 fps=5175 q=-1.0 size=  243235kB time=00:17:19.58 bitrate=1916.7kbits/s    
frame=33746 fps=5176 q=-1.0 size=  262380kB time=00:18:46.04 bitrate=1908.8kbits/s    
frame=36527 fps=5203 q=-1.0 size=  283925kB time=00:20:18.94 bitrate=1908.1kbits/s    
frame=38642 fps=5138 q=-1.0 size=  300832kB time=00:21:29.56 bitrate=1911.0kbits/s    
frame=42095 fps=5248 q=-1.0 size=  323908kB time=00:23:24.57 bitrate=1889.2kbits/s    
frame=45020 fps=5284 q=-1.0 size=  347106kB time=00:25:02.24 bitrate=1892.8kbits/s    
frame=48818 fps=5412 q=-1.0 size=  368755kB time=00:27:09.02 bitrate=1854.4kbits/s    
frame=51673 fps=5427 q=-1.0 size=  390354kB time=00:28:44.41 bitrate=1854.4kbits/s    
frame=54725 fps=5461 q=-1.0 size=  413900kB time=00:30:26.04 bitrate=1856.8kbits/s    
frame=57605 fps=5475 q=-1.0 size=  434977kB time=00:32:02.14 bitrate=1853.8kbits/s    
frame=60536 fps=5492 q=-1.0 size=  451691kB time=00:33:39.96 bitrate=1831.8kbits/s    
frame=63155 fps=5480 q=-1.0 size=  470306kB time=00:35:07.36 bitrate=1828.2kbits/s    
frame=66338 fps=5517 q=-1.0 size=  491793kB time=00:36:53.60 bitrate=1820.0kbits/s    
frame=68755 fps=5472 q=-1.0 size=  508152kB time=00:38:14.24 bitrate=1814.4kbits/s    
frame=71963 fps=5508 q=-1.0 size=  530042kB time=00:40:01.21 bitrate=1808.3kbits/s    
frame=74489 fps=5491 q=-1.0 size=  548855kB time=00:41:25.53 bitrate=1809.0kbits/s    
frame=76074 fps=5402 q=-1.0 size=  562379kB time=00:42:18.46 bitrate=1814.9kbits/s    
frame=79117 fps=5425 q=-1.0 size=  582070kB time=00:44:00.00 bitrate=1806.2kbits/s    
frame=81641 fps=5408 q=-1.0 size=  599187kB time=00:45:24.19 bitrate=1801.8kbits/s    
frame=83848 fps=5363 q=-1.0 Lsize=  615330kB time=00:46:37.79 bitrate=1801.7kbits/s    
video:460304kB audio:153004kB subtitle:0 global headers:0kB muxing overhead 0.329737%
Same with the second push with the original file... It stopped itself also.

Code:
Output #0, mp4, to '/video/Hill Street/07/edited, A.mkv.pyTivo-temp':
  Metadata:
    encoder         : Lavf54.29.104
    Chapter #0.0: start 0.000000, end 2797.770000
    Metadata:
      title           : Chapter 01
    Stream #0:0(eng): Video: h264 ([33][0][0][0] / 0x0021), yuv420p, 720x480 [SAR 8:9 DAR 4:3], q=2-31, 23.98 fps, 1k tbn, 1k tbc (default)
    Stream #0:1: Audio: ac3 ([165][0][0][0] / 0x00A5), 48000 Hz, stereo, flt, 448 kb/s (default)
Stream mapping:
  Stream #0:0 -> #0:0 (copy)
  Stream #0:1 -> #0:1 (mp3 -> ac3)
Press [q] to stop, [?] for help
frame=  293 fps=0.0 q=-1.0 size=    1470kB time=00:00:09.81 bitrate=1226.1kbits/s    
frame=  766 fps=766 q=-1.0 size=    4012kB time=00:00:25.53 bitrate=1287.4kbits/s    
frame= 1240 fps=826 q=-1.0 size=    6708kB time=00:00:41.43 bitrate=1326.2kbits/s    
frame= 1700 fps=850 q=-1.0 size=   10333kB time=00:00:56.75 bitrate=1491.5kbits/s    
frame= 2169 fps=867 q=-1.0 size=   13636kB time=00:01:12.40 bitrate=1542.8kbits/s    
frame= 2470 fps=823 q=-1.0 size=   16167kB time=00:01:22.51 bitrate=1605.1kbits/s    
frame= 2744 fps=784 q=-1.0 size=   18628kB time=00:01:31.54 bitrate=1666.9kbits/s    
frame= 3219 fps=804 q=-1.0 size=   22020kB time=00:01:47.37 bitrate=1679.9kbits/s    
frame= 3676 fps=817 q=-1.0 size=   25834kB time=00:02:02.73 bitrate=1724.2kbits/s    
frame= 4151 fps=830 q=-1.0 size=   29089kB time=00:02:18.52 bitrate=1720.3kbits/s    
frame= 4624 fps=840 q=-1.0 size=   32571kB time=00:02:34.33 bitrate=1728.9kbits/s    
frame= 5081 fps=846 q=-1.0 size=   36078kB time=00:02:49.56 bitrate=1743.0kbits/s    
frame= 5537 fps=851 q=-1.0 size=   39961kB time=00:03:04.73 bitrate=1772.1kbits/s    
frame= 5989 fps=855 q=-1.0 size=   43803kB time=00:03:19.86 bitrate=1795.4kbits/s    
frame= 6436 fps=858 q=-1.0 size=   47981kB time=00:03:34.74 bitrate=1830.3kbits/s    
frame= 6887 fps=860 q=-1.0 size=   51953kB time=00:03:49.87 bitrate=1851.5kbits/s    
frame= 7343 fps=863 q=-1.0 size=   56021kB time=00:04:05.01 bitrate=1873.0kbits/s    
frame= 7801 fps=866 q=-1.0 size=   59658kB time=00:04:20.34 bitrate=1877.2kbits/s    
frame= 8200 fps=863 q=-1.0 size=   62898kB time=00:04:33.69 bitrate=1882.6kbits/s    
frame= 8546 fps=854 q=-1.0 size=   65908kB time=00:04:45.14 bitrate=1893.5kbits/s    
frame= 9011 fps=858 q=-1.0 size=   70040kB time=00:05:00.66 bitrate=1908.3kbits/s    
frame= 9488 fps=862 q=-1.0 size=   73660kB time=00:05:16.60 bitrate=1905.9kbits/s    
frame= 9952 fps=865 q=-1.0 size=   77889kB time=00:05:32.05 bitrate=1921.5kbits/s    
frame=10424 fps=868 q=-1.0 size=   81523kB time=00:05:47.89 bitrate=1919.6kbits/s    
frame=10899 fps=871 q=-1.0 size=   85237kB time=00:06:03.67 bitrate=1920.0kbits/s    
frame=11381 fps=875 q=-1.0 size=   88940kB time=00:06:19.77 bitrate=1918.5kbits/s    
frame=11852 fps=877 q=-1.0 size=   93225kB time=00:06:35.51 bitrate=1930.9kbits/s    
frame=12340 fps=881 q=-1.0 size=   96806kB time=00:06:51.80 bitrate=1925.8kbits/s    
frame=12793 fps=882 q=-1.0 size=   99697kB time=00:07:06.90 bitrate=1913.1kbits/s    
frame=13167 fps=877 q=-1.0 size=  101992kB time=00:07:19.35 bitrate=1901.7kbits/s    
frame=13572 fps=875 q=-1.0 size=  105013kB time=00:07:32.94 bitrate=1899.3kbits/s    
frame=14020 fps=876 q=-1.0 size=  108618kB time=00:07:47.83 bitrate=1901.9kbits/s    
frame=14497 fps=878 q=-1.0 size=  111316kB time=00:08:03.68 bitrate=1885.3kbits/s    
frame=14986 fps=881 q=-1.0 size=  114071kB time=00:08:20.12 bitrate=1868.5kbits/s    
frame=15481 fps=884 q=-1.0 size=  116796kB time=00:08:36.53 bitrate=1852.3kbits/s    
frame=15961 fps=886 q=-1.0 size=  120437kB time=00:08:52.60 bitrate=1852.4kbits/s    
frame=16429 fps=887 q=-1.0 size=  124185kB time=00:09:08.18 bitrate=1855.8kbits/s    
frame=16900 fps=889 q=-1.0 size=  127615kB time=00:09:23.98 bitrate=1853.6kbits/s    
frame=17374 fps=890 q=-1.0 size=  131109kB time=00:09:39.76 bitrate=1852.6kbits/s    
frame=17834 fps=891 q=-1.0 size=  134612kB time=00:09:55.15 bitrate=1852.9kbits/s    
frame=18227 fps=889 q=-1.0 size=  137741kB time=00:10:08.21 bitrate=1855.2kbits/s    
frame=18597 fps=885 q=-1.0 size=  140435kB time=00:10:20.53 bitrate=1853.9kbits/s    
frame=18914 fps=879 q=-1.0 size=  142953kB time=00:10:31.09 bitrate=1855.6kbits/s    
frame=19267 fps=875 q=-1.0 size=  146348kB time=00:10:42.90 bitrate=1864.8kbits/s    
frame=19706 fps=875 q=-1.0 size=  149290kB time=00:10:57.56 bitrate=1859.9kbits/s    
frame=20192 fps=877 q=-1.0 size=  152631kB time=00:11:13.78 bitrate=1855.7kbits/s    
frame=20671 fps=879 q=-1.0 size=  155946kB time=00:11:29.71 bitrate=1852.2kbits/s    
frame=21126 fps=880 q=-1.0 size=  160094kB time=00:11:44.92 bitrate=1860.5kbits/s    
frame=21556 fps=879 q=-1.0 size=  165211kB time=00:11:59.32 bitrate=1881.5kbits/s    
frame=22015 fps=880 q=-1.0 size=  169745kB time=00:12:14.65 bitrate=1892.8kbits/s    
frame=22465 fps=880 q=-1.0 size=  174521kB time=00:12:29.54 bitrate=1907.4kbits/s    
frame=22918 fps=881 q=-1.0 size=  179080kB time=00:12:44.75 bitrate=1918.3kbits/s    
frame=23375 fps=881 q=-1.0 size=  183800kB time=00:12:59.96 bitrate=1930.5kbits/s    
frame=23836 fps=882 q=-1.0 size=  187785kB time=00:13:15.37 bitrate=1934.1kbits/s    
frame=24302 fps=883 q=-1.0 size=  191539kB time=00:13:30.90 bitrate=1935.0kbits/s    
frame=24776 fps=884 q=-1.0 size=  195232kB time=00:13:46.71 bitrate=1934.6kbits/s    
frame=25268 fps=886 q=-1.0 size=  198362kB time=00:14:03.13 bitrate=1927.3kbits/s    
frame=25750 fps=887 q=-1.0 size=  201365kB time=00:14:19.25 bitrate=1919.8kbits/s    
frame=26233 fps=889 q=-1.0 size=  204290kB time=00:14:35.29 bitrate=1912.0kbits/s    
frame=26716 fps=890 q=-1.0 size=  207375kB time=00:14:51.50 bitrate=1905.6kbits/s    
frame=27199 fps=891 q=-1.0 size=  210395kB time=00:15:07.57 bitrate=1899.1kbits/s    
frame=27682 fps=892 q=-1.0 size=  213491kB time=00:15:23.70 bitrate=1893.4kbits/s    
frame=28166 fps=894 q=-1.0 size=  216685kB time=00:15:39.92 bitrate=1888.5kbits/s    
frame=28606 fps=893 q=-1.0 size=  219971kB time=00:15:54.49 bitrate=1887.9kbits/s    
frame=29026 fps=893 q=-1.0 size=  224022kB time=00:16:08.56 bitrate=1894.8kbits/s    
frame=29382 fps=890 q=-1.0 size=  227082kB time=00:16:20.44 bitrate=1897.4kbits/s    
frame=29854 fps=891 q=-1.0 size=  231062kB time=00:16:36.18 bitrate=1900.1kbits/s    
frame=30331 fps=891 q=-1.0 size=  235007kB time=00:16:52.05 bitrate=1902.2kbits/s    
frame=30781 fps=892 q=-1.0 size=  239263kB time=00:17:07.09 bitrate=1908.3kbits/s    
frame=31135 fps=889 q=-1.0 size=  243044kB time=00:17:18.86 bitrate=1916.5kbits/s    
frame=31465 fps=886 q=-1.0 size=  245905kB time=00:17:29.94 bitrate=1918.6kbits/s    
frame=31795 fps=883 q=-1.0 size=  248683kB time=00:17:40.91 bitrate=1920.2kbits/s    
frame=32078 fps=878 q=-1.0 size=  251352kB time=00:17:50.41 bitrate=1923.6kbits/s    
frame=32534 fps=879 q=-1.0 size=  254675kB time=00:18:05.58 bitrate=1921.8kbits/s    
frame=33019 fps=880 q=-1.0 size=  257421kB time=00:18:21.81 bitrate=1913.9kbits/s    
frame=33514 fps=881 q=-1.0 size=  260486kB time=00:18:38.29 bitrate=1908.2kbits/s    
frame=33976 fps=882 q=-1.0 size=  264339kB time=00:18:53.75 bitrate=1910.0kbits/s    
frame=34450 fps=883 q=-1.0 size=  268117kB time=00:19:09.45 bitrate=1910.8kbits/s    
frame=34928 fps=884 q=-1.0 size=  271828kB time=00:19:25.42 bitrate=1910.7kbits/s    
frame=35410 fps=885 q=-1.0 size=  275321kB time=00:19:41.58 bitrate=1908.8kbits/s    
frame=35881 fps=885 q=-1.0 size=  279281kB time=00:19:57.21 bitrate=1911.0kbits/s    
frame=36355 fps=886 q=-1.0 size=  282752kB time=00:20:13.04 bitrate=1909.5kbits/s    
frame=36826 fps=887 q=-1.0 size=  286279kB time=00:20:28.79 bitrate=1908.5kbits/s    
frame=37295 fps=887 q=-1.0 size=  290256kB time=00:20:44.44 bitrate=1910.7kbits/s    
frame=37778 fps=888 q=-1.0 size=  294007kB time=00:21:00.53 bitrate=1910.7kbits/s    
frame=38258 fps=889 q=-1.0 size=  297408kB time=00:21:16.59 bitrate=1908.5kbits/s    
frame=38725 fps=890 q=-1.0 size=  301609kB time=00:21:32.15 bitrate=1912.1kbits/s    
frame=39220 fps=891 q=-1.0 size=  304644kB time=00:21:48.69 bitrate=1907.0kbits/s    
frame=39715 fps=892 q=-1.0 size=  307495kB time=00:22:05.17 bitrate=1900.9kbits/s    
frame=40210 fps=893 q=-1.0 size=  310646kB time=00:22:21.69 bitrate=1896.7kbits/s    
frame=40703 fps=894 q=-1.0 size=  313823kB time=00:22:38.13 bitrate=1892.9kbits/s    
frame=41198 fps=895 q=-1.0 size=  316736kB time=00:22:54.65 bitrate=1887.5kbits/s    
frame=41653 fps=895 q=-1.0 size=  320499kB time=00:23:09.85 bitrate=1889.1kbits/s    
frame=42045 fps=894 q=-1.0 size=  323504kB time=00:23:22.87 bitrate=1889.1kbits/s    
frame=42500 fps=894 q=-1.0 size=  327114kB time=00:23:38.10 bitrate=1889.6kbits/s    
frame=42961 fps=894 q=-1.0 size=  331116kB time=00:23:53.46 bitrate=1892.3kbits/s    
frame=43436 fps=895 q=-1.0 size=  334446kB time=00:24:09.36 bitrate=1890.3kbits/s    
frame=43912 fps=896 q=-1.0 size=  337749kB time=00:24:25.26 bitrate=1888.3kbits/s    
frame=44373 fps=896 q=-1.0 size=  341836kB time=00:24:40.60 bitrate=1891.3kbits/s    
frame=44837 fps=896 q=-1.0 size=  345960kB time=00:24:56.02 bitrate=1894.4kbits/s    
frame=45316 fps=897 q=-1.0 size=  349189kB time=00:25:12.05 bitrate=1891.8kbits/s    
frame=45721 fps=896 q=-1.0 size=  351669kB time=00:25:25.55 bitrate=1888.4kbits/s    
frame=46183 fps=896 q=-1.0 size=  354194kB time=00:25:40.98 bitrate=1882.9kbits/s    
frame=46654 fps=897 q=-1.0 size=  356689kB time=00:25:56.69 bitrate=1877.1kbits/s    
frame=47150 fps=897 q=-1.0 size=  359405kB time=00:26:13.27 bitrate=1871.4kbits/s    
frame=47651 fps=898 q=-1.0 size=  362217kB time=00:26:29.94 bitrate=1866.3kbits/s    
frame=48146 fps=899 q=-1.0 size=  364989kB time=00:26:46.52 bitrate=1861.2kbits/s    
frame=48640 fps=900 q=-1.0 size=  367761kB time=00:27:03.00 bitrate=1856.2kbits/s    
frame=49123 fps=901 q=-1.0 size=  370499kB time=00:27:19.09 bitrate=1851.7kbits/s    
frame=49487 fps=899 q=-1.0 size=  372935kB time=00:27:31.25 bitrate=1850.2kbits/s    
frame=49834 fps=897 q=-1.0 size=  375891kB time=00:27:42.77 bitrate=1851.9kbits/s    
frame=50169 fps=895 q=-1.0 size=  378373kB time=00:27:53.94 bitrate=1851.7kbits/s    
frame=50423 fps=892 q=-1.0 size=  379999kB time=00:28:02.51 bitrate=1850.2kbits/s    
frame=50905 fps=892 q=-1.0 size=  383783kB time=00:28:18.55 bitrate=1851.0kbits/s    
frame=51380 fps=893 q=-1.0 size=  387940kB time=00:28:34.39 bitrate=1853.7kbits/s    
frame=51857 fps=893 q=-1.0 size=  391621kB time=00:28:50.35 bitrate=1854.0kbits/s    
frame=52332 fps=894 q=-1.0 size=  395349kB time=00:29:06.23 bitrate=1854.7kbits/s    
frame=52808 fps=894 q=-1.0 size=  399119kB time=00:29:22.04 bitrate=1855.6kbits/s    
frame=53278 fps=895 q=-1.0 size=  402964kB time=00:29:37.72 bitrate=1856.9kbits/s    
frame=53753 fps=895 q=-1.0 size=  406862kB time=00:29:53.62 bitrate=1858.3kbits/s    
frame=54226 fps=895 q=-1.0 size=  410479kB time=00:30:09.42 bitrate=1858.4kbits/s    
frame=54710 fps=896 q=-1.0 size=  413806kB time=00:30:25.53 bitrate=1856.9kbits/s    
frame=55183 fps=896 q=-1.0 size=  417224kB time=00:30:41.27 bitrate=1856.3kbits/s    
frame=55666 fps=897 q=-1.0 size=  420505kB time=00:30:57.36 bitrate=1854.7kbits/s    
frame=56126 fps=897 q=-1.0 size=  423939kB time=00:31:12.82 bitrate=1854.4kbits/s    
frame=56605 fps=898 q=-1.0 size=  427375kB time=00:31:28.72 bitrate=1853.7kbits/s    
frame=57077 fps=898 q=-1.0 size=  431262kB time=00:31:44.49 bitrate=1855.0kbits/s    
frame=57560 fps=898 q=-1.0 size=  434733kB time=00:32:00.60 bitrate=1854.3kbits/s    
frame=58055 fps=899 q=-1.0 size=  437537kB time=00:32:17.14 bitrate=1850.3kbits/s    
frame=58550 fps=900 q=-1.0 size=  440350kB time=00:32:33.65 bitrate=1846.5kbits/s    
frame=59050 fps=901 q=-1.0 size=  443107kB time=00:32:50.26 bitrate=1842.4kbits/s    
frame=59530 fps=901 q=-1.0 size=  445642kB time=00:33:06.33 bitrate=1837.9kbits/s    
frame=60015 fps=902 q=-1.0 size=  448410kB time=00:33:22.49 bitrate=1834.4kbits/s    
frame=60421 fps=901 q=-1.0 size=  450977kB time=00:33:36.09 bitrate=1832.5kbits/s    
frame=60778 fps=900 q=-1.0 size=  453182kB time=00:33:47.99 bitrate=1830.6kbits/s    
frame=61144 fps=898 q=-1.0 size=  455482kB time=00:34:00.14 bitrate=1828.9kbits/s    
frame=61456 fps=896 q=-1.0 size=  457330kB time=00:34:10.65 bitrate=1827.0kbits/s    
frame=61958 fps=897 q=-1.0 size=  460679kB time=00:34:27.35 bitrate=1825.5kbits/s    
frame=62449 fps=898 q=-1.0 size=  464506kB time=00:34:43.76 bitrate=1826.1kbits/s    
frame=62935 fps=898 q=-1.0 size=  468796kB time=00:35:00.01 bitrate=1828.7kbits/s    
frame=63425 fps=899 q=-1.0 size=  471925kB time=00:35:16.30 bitrate=1826.8kbits/s    
frame=63922 fps=899 q=-1.0 size=  474811kB time=00:35:32.92 bitrate=1823.6kbits/s    
frame=64414 fps=900 q=-1.0 size=  477733kB time=00:35:49.33 bitrate=1820.8kbits/s    
frame=64901 fps=901 q=-1.0 size=  480611kB time=00:36:05.49 bitrate=1818.1kbits/s    
frame=65372 fps=901 q=-1.0 size=  484499kB time=00:36:21.27 bitrate=1819.6kbits/s    
frame=65847 fps=901 q=-1.0 size=  488107kB time=00:36:37.13 bitrate=1819.9kbits/s    
frame=66329 fps=902 q=-1.0 size=  491723kB time=00:36:53.20 bitrate=1820.1kbits/s    
frame=66812 fps=902 q=-1.0 size=  495290kB time=00:37:09.33 bitrate=1820.0kbits/s    
frame=67300 fps=903 q=-1.0 size=  498705kB time=00:37:25.59 bitrate=1819.3kbits/s    
frame=67789 fps=903 q=-1.0 size=  502075kB time=00:37:41.88 bitrate=1818.4kbits/s    
frame=68276 fps=903 q=-1.0 size=  505029kB time=00:37:58.17 bitrate=1816.0kbits/s    
frame=68761 fps=904 q=-1.0 size=  508186kB time=00:38:14.29 bitrate=1814.5kbits/s    
frame=69253 fps=904 q=-1.0 size=  511254kB time=00:38:30.77 bitrate=1812.5kbits/s    
frame=69744 fps=905 q=-1.0 size=  514196kB time=00:38:47.09 bitrate=1810.1kbits/s    
frame=70242 fps=906 q=-1.0 size=  517267kB time=00:39:03.77 bitrate=1808.0kbits/s    
frame=70723 fps=906 q=-1.0 size=  520140kB time=00:39:19.83 bitrate=1805.6kbits/s    
frame=71200 fps=906 q=-1.0 size=  523842kB time=00:39:35.67 bitrate=1806.4kbits/s    
frame=71672 fps=906 q=-1.0 size=  527536kB time=00:39:51.51 bitrate=1807.0kbits/s    
frame=72139 fps=907 q=-1.0 size=  531573kB time=00:40:07.03 bitrate=1809.1kbits/s    
frame=72509 fps=906 q=-1.0 size=  534289kB time=00:40:19.41 bitrate=1809.1kbits/s    
frame=72961 fps=906 q=-1.0 size=  537693kB time=00:40:34.55 bitrate=1809.3kbits/s    
frame=73442 fps=906 q=-1.0 size=  541128kB time=00:40:50.55 bitrate=1808.9kbits/s    
frame=73915 fps=906 q=-1.0 size=  544511kB time=00:41:06.38 bitrate=1808.6kbits/s    
frame=74398 fps=906 q=-1.0 size=  547997kB time=00:41:22.45 bitrate=1808.4kbits/s    
frame=74851 fps=906 q=-1.0 size=  552136kB time=00:41:37.53 bitrate=1811.0kbits/s    
frame=75211 fps=905 q=-1.0 size=  555288kB time=00:41:49.55 bitrate=1812.6kbits/s    
frame=75670 fps=905 q=-1.0 size=  558658kB time=00:42:04.88 bitrate=1812.6kbits/s    
frame=76129 fps=905 q=-1.0 size=  562948kB time=00:42:20.21 bitrate=1815.5kbits/s    
frame=76576 fps=905 q=-1.0 size=  567094kB time=00:42:35.09 bitrate=1818.2kbits/s    
frame=77056 fps=906 q=-1.0 size=  570626kB time=00:42:51.18 bitrate=1818.1kbits/s    
frame=77516 fps=906 q=-1.0 size=  573256kB time=00:43:06.49 bitrate=1815.6kbits/s    
frame=77872 fps=905 q=-1.0 size=  575209kB time=00:43:18.29 bitrate=1813.5kbits/s    
frame=78262 fps=904 q=-1.0 size=  577318kB time=00:43:31.35 bitrate=1811.1kbits/s    
frame=78637 fps=903 q=-1.0 size=  579454kB time=00:43:43.86 bitrate=1809.1kbits/s    
frame=79006 fps=902 q=-1.0 size=  581476kB time=00:43:56.21 bitrate=1806.9kbits/s    
frame=79501 fps=903 q=-1.0 size=  584223kB time=00:44:12.76 bitrate=1804.1kbits/s    
frame=80002 fps=903 q=-1.0 size=  587327kB time=00:44:29.43 bitrate=1802.4kbits/s    
frame=80491 fps=904 q=-1.0 size=  590540kB time=00:44:45.69 bitrate=1801.3kbits/s    
frame=80984 fps=904 q=-1.0 size=  593671kB time=00:45:02.19 bitrate=1799.8kbits/s    
frame=81450 fps=904 q=-1.0 size=  597328kB time=00:45:17.78 bitrate=1800.5kbits/s    
frame=81910 fps=904 q=-1.0 size=  601417kB time=00:45:33.11 bitrate=1802.6kbits/s    
frame=82400 fps=905 q=-1.0 size=  604545kB time=00:45:49.43 bitrate=1801.3kbits/s    
frame=82897 fps=905 q=-1.0 size=  607241kB time=00:46:06.04 bitrate=1798.4kbits/s    
frame=83388 fps=906 q=-1.0 size=  610256kB time=00:46:22.39 bitrate=1796.7kbits/s    
st:0 PTS: 512 DTS: 512 < 134292225 invalid, clipping
[mp4 @ 0x8a1b460] st:0 PTS: 2048 DTS: 2048 < 134292226 invalid, clipping
[mp4 @ 0x8a1b460] st:0 PTS: 3584 DTS: 3584 < 134292227 invalid, clipping
frame=83848 fps=905 q=-1.0 Lsize=  615730kB time=00:46:37.78 bitrate=1802.9kbits/s    
video:460304kB audio:153010kB subtitle:0 global headers:0kB muxing overhead 0.393956%


Last edited by Soapm : 09-03-2013 at 01:50 PM.
Soapm is offline   Reply With Quote
Old 09-03-2013, 02:05 PM   #4445
Soapm
Registered User
 
Soapm's Avatar
 
Join Date: May 2007
Location: So close, yet too far away
Posts: 1,475
Since I was getting inconsistent results I restarted pytivo (service pyTivo restart) and tried again. I pushed the sound modified version first then decided to push the original about a minute later. The strange thing is, the second push went to the Tivo first and it appears it went strait through without even calling for ffmpeg and it had temp added to the file name "edited, A.mkv.pyTivo-temp". The video was fine but the sound had the garble effect.

Now the modified version is pushing but I guess since it's using ffmpeg to modify the video I have another 1 and 49 minutes to wait before I can look at it. I noticed when the first one pushed I could look at it right away and it completely pushed in about 2 minutes.

When the modified version finished I will reboot both the tivo and server just to see if I can get consistency. I know things are easier to troubleshoot when you get a consistent problem.

Code:
INFO:pyTivo:Last modified: Tue Sep  3 00:51:48 2013
INFO:pyTivo:Python: 2.7.3
INFO:pyTivo:System: Linux-3.2.0-4-686-pae-i686-with-debian-7.1
INFO:pyTivo.beacon:Scanning for TiVos...
INFO:pyTivo.beacon:TivoHD
INFO:pyTivo.beacon:Other
INFO:pyTivo.beacon:Announcing shares...
INFO:pyTivo.beacon:Registering: DVDs
INFO:pyTivo.beacon:Registering: Lenny
INFO:pyTivo:pyTivo is ready.
INFO:pyTivo:192.168.0.195 [03/Sep/2013 12:51:28] "GET /TiVoConnect?Command=QueryContainer&Container=%2F HTTP/1.0" 200 -
INFO:pyTivo:192.168.0.182 [03/Sep/2013 12:51:28] "GET /TiVoConnect?Command=QueryContainer&Container=%2F&DoGenres=1 HTTP/1.0" 200 -
INFO:pyTivo:192.168.0.198 [03/Sep/2013 12:51:29] "GET /TiVoConnect?Command=QueryContainer&Container=Lenny&Format=text/html HTTP/1.1" 200 -
INFO:pyTivo:192.168.0.198 [03/Sep/2013 12:51:33] "GET /TiVoConnect?Command=QueryContainer&Container=Lenny/Hill%20Street&Format=text/html HTTP/1.1" 200 -
INFO:pyTivo:192.168.0.198 [03/Sep/2013 12:51:34] "GET /TiVoConnect?Command=QueryContainer&Container=Lenny/Hill%20Street/07&Format=text/html HTTP/1.1" 200 -
INFO:pyTivo.video.video:[03/Sep/2013 12:51:40] Queued "/video/Hill Street/07/edited, A_ac3.mkv" for Push to TivoHD
INFO:pyTivo:192.168.0.198 [03/Sep/2013 12:51:40] "POST /TiVoConnect HTTP/1.1" 200 -
INFO:pyTivo:192.168.0.198 [03/Sep/2013 12:51:45] "GET /TiVoConnect?Command=QueryContainer&Container=Lenny/Hill%20Street/07&Format=text/html HTTP/1.1" 200 -
INFO:pyTivo.video.video:[03/Sep/2013 12:52:33] Queued "/video/Hill Street/07/edited, A.mkv" for Push to TivoHD
INFO:pyTivo:192.168.0.198 [03/Sep/2013 12:52:33] "POST /TiVoConnect HTTP/1.1" 200 -
INFO:pyTivo:192.168.0.198 [03/Sep/2013 12:52:38] "GET /TiVoConnect?Command=QueryContainer&Container=Lenny/Hill%20Street/07&Format=text/html HTTP/1.1" 200 -
INFO:pyTivo:192.168.0.195 [03/Sep/2013 12:54:44] "GET /Lenny/Hill%20Street/07/S07E21%20Pound%20of%20Flesh,%20A.mkv.pyTivo-temp?Format=video%2Fmp4 HTTP/1.1" 200 -
INFO:pyTivo.video.video:[03/Sep/2013 12:54:44] Start sending "/video/Hill Street/07/edited, A.mkv.pyTivo-temp" to TivoHD
INFO:pyTivo.video.qt-faststart:Removing free atom at 32 (8 bytes)
INFO:pyTivo.video.qt-faststart:Patching stco with 78827 entries
INFO:pyTivo.video.qt-faststart:Patching stco with 78827 entries
INFO:pyTivo.video.qt-faststart:Writing output...
INFO:pyTivo.video.video:[03/Sep/2013 12:58:36] Done sending "/video/Hill Street/07/edited, A.mkv.pyTivo-temp" to TivoHD, 630507106 bytes, 20.67 Mb/s
INFO:pyTivo:192.168.0.195 [03/Sep/2013 13:00:26] "GET /Lenny/Hill%20Street/07/S07E21%20Pound%20of%20Flesh,%20A_ac3.mkv?Format=video%2Fmpeg HTTP/1.1" 206 -
INFO:pyTivo.video.video:[03/Sep/2013 13:00:26] Start sending "/video/Hill Street/07/edited, A_ac3.mkv" to TivoHD
ffmpeg version 1.0.7 Copyright (c) 2000-2013 the FFmpeg developers
  built on Jul 19 2013 07:03:17 with gcc 4.7 (Debian 4.7.2-5)
  configuration: --prefix=/usr --extra-cflags='-g -O2 -fstack-protector --param=ssp-buffer-size=4 -Wformat -Werror=format-security ' --extra-ldflags='-Wl,-z,relro' --cc='ccache cc' --enable-shared --enable-libmp3lame --enable-gpl --enable-nonfree --enable-libvorbis --enable-pthreads --enable-libfaac --enable-libxvid --enable-postproc --enable-x11grab --enable-libgsm --enable-libtheora --enable-libopencore-amrnb --enable-libopencore-amrwb --enable-libx264 --enable-libspeex --enable-nonfree --disable-stripping --enable-libvpx --enable-libschroedinger --disable-encoder=libschroedinger --enable-version3 --enable-libopenjpeg --enable-librtmp --enable-avfilter --enable-libfreetype --enable-libvo-aacenc --disable-decoder=amrnb --enable-libvo-amrwbenc --enable-libaacplus --libdir=/usr/lib/i386-linux-gnu --disable-vda --enable-libbluray --enable-libcdio --enable-gnutls --enable-frei0r --enable-openssl --enable-libass --enable-libopus --enable-fontconfig --enable-libfdk-aac --enable-libdc1394 --disable-altivec --disab  libavutil      51. 73.101 / 51. 73.101
  libavcodec     54. 59.100 / 54. 59.100
  libavformat    54. 29.104 / 54. 29.104
  libavdevice    54.  2.101 / 54.  2.101
  libavfilter     3. 17.100 /  3. 17.100
  libswscale      2.  1.101 /  2.  1.101
  libswresample   0. 15.100 /  0. 15.100
  libpostproc    52.  0.100 / 52.  0.100
Input #0, matroska,webm, from '/video/Hill Street/07/edited, A_ac3.mkv':
  Metadata:
    creation_time   : 2013-09-03 00:22:00
  Duration: 00:46:37.79, start: 0.000000, bitrate: 1797 kb/s
    Chapter #0.0: start 0.000000, end 2797.792000
    Metadata:
      title           : Chapter 01
    Stream #0:0(eng): Video: h264 (High), yuv420p, 720x480 [SAR 8:9 DAR 4:3], 23.98 fps, 23.98 tbr, 1k tbn, 47.95 tbc (default)
    Stream #0:1: Audio: ac3, 48000 Hz, stereo, s16, 448 kb/s (default) (forced)
Please use -b:a or -b:v, -b is ambiguous
Output #0, vob, to 'pipe:':
  Metadata:
    encoder         : Lavf54.29.104
    Chapter #0.0: start 0.000000, end 2797.792000
    Metadata:
      title           : Chapter 01
    Stream #0:0(eng): Video: mpeg2video, yuv420p, 720x480 [SAR 8:9 DAR 4:3], q=2-31, 16384 kb/s, 90k tbn, 23.98 tbc (default)
    Stream #0:1: Audio: ac3, 48000 Hz, stereo, 448 kb/s (default) (forced)
Stream mapping:
  Stream #0:0 -> #0:0 (h264 -> mpeg2video)
  Stream #0:1 -> #0:1 (copy)
Press [q] to stop, [?] for help
frame=   35 fps=0.0 q=2.0 size=     134kB time=00:00:01.53 bitrate= 714.7kbits/s dup=1 drop=6    
frame=   74 fps= 72 q=1.6 size=     342kB time=00:00:03.10 bitrate= 902.6kbits/s dup=1 drop=16    
frame=  109 fps= 71 q=2.0 size=     530kB time=00:00:04.60 bitrate= 942.2kbits/s dup=1 drop=25    
frame=  115 fps= 21 q=2.0 size=     590kB time=00:00:04.89 bitrate= 987.2kbits/s dup=1 drop=26    
frame=  141 fps= 23 q=2.0 size=     914kB time=00:00:06.04 bitrate=1238.0kbits/s dup=1 drop=32    
frame=  159 fps= 23 q=2.0 size=    1136kB time=00:00:06.81 bitrate=1365.3kbits/s dup=1 drop=37    
frame=  185 fps= 25 q=2.0 size=    1452kB time=00:00:07.84 bitrate=1517.2kbits/s dup=1 drop=43    
frame=  197 fps= 25 q=2.0 size=    1604kB time=00:00:08.32 bitrate=1579.3kbits/s dup=1 drop=47


Last edited by Soapm : 09-03-2013 at 02:12 PM.
Soapm is offline   Reply With Quote
Old 09-03-2013, 04:11 PM   #4446
Soapm
Registered User
 
Soapm's Avatar
 
Join Date: May 2007
Location: So close, yet too far away
Posts: 1,475
Restarted both Tivo and server and it's back to recoding both files.

This is the sound modified... Jerky but great sound.

Code:
Output #0, vob, to 'pipe:':
  Metadata:
    encoder         : Lavf54.29.104
    Chapter #0.0: start 0.000000, end 2797.792000
    Metadata:
      title           : Chapter 01
    Stream #0:0(eng): Video: mpeg2video, yuv420p, 720x480 [SAR 8:9 DAR 4:3], q=2-31, 16384 kb/s, 90k tbn, 23.98 tbc (default)
    Stream #0:1: Audio: ac3, 48000 Hz, stereo, 448 kb/s (default) (forced)
Stream mapping:
  Stream #0:0 -> #0:0 (h264 -> mpeg2video)
  Stream #0:1 -> #0:1 (copy)
Sound not modified... Jerky and garbled sound.

Code:
Output #0, vob, to 'pipe:':
  Metadata:
    encoder         : Lavf54.29.104
    Chapter #0.0: start 0.000000, end 2797.770000
    Metadata:
      title           : Chapter 01
    Stream #0:0(eng): Video: mpeg2video, yuv420p, 720x480 [SAR 8:9 DAR 4:3], q=2-31, 16384 kb/s, 90k tbn, 23.98 tbc (default)
    Stream #0:1: Audio: ac3, 48000 Hz, stereo, flt, 448 kb/s (default)
Stream mapping:
  Stream #0:0 -> #0:0 (h264 -> mpeg2video)
  Stream #0:1 -> #0:1 (mp3 -> ac3)
Sure wish I could consistently get it to send the files directly over. Not only does it look and sound better, it transfers extremely fast. Isn't there setting we can pass directly to ffmpeg that will cause it to skip recode? Something like "-vcodec copy -acodec copy" but be able to specify codecs the Tivo can't handle.
Soapm is offline   Reply With Quote
Old 09-03-2013, 10:21 PM   #4447
Soapm
Registered User
 
Soapm's Avatar
 
Join Date: May 2007
Location: So close, yet too far away
Posts: 1,475
Been searching on this most of the day and concluded my problem has to do with the dropped frames. Since in H264, every frame is based on previous frame, the next frame isn't correctly decompressed when the previous frame gets dropped. That must be what I'm seeing as "jerky".

To keep the audio in sync, sound frames also have to be adjusted if the video drops frames which must account for the garbled sound.

What I can't find is a setting that forces ffmpeg to stop dropping frames. That frame rate isn't being converted so I have to wonder which it's dropping frames like that anyway.
Soapm is offline   Reply With Quote
Old 09-08-2013, 11:52 PM   #4448
Joe Siegler
Registered User
 
Joe Siegler's Avatar
 
Join Date: May 2000
Location: Garland, TX
Posts: 697
Given the level of discussion in here, I'm about to ask what can be perceived as a n00b question.

I have the videos I browse from my TiVo in two places on my computer. There's the archive of things that my TiVo has actually recorded in one directory, and another archive of "other" videos elsewhere.

Until very recently I was using TiVo Desktop, and to get to the "other" directory, I had a plain old Windows shortcut in the TiVo archive directory. Selecting that would get me over to the "other" archive.

However, pyTiVo doesn't seem to recognize/respect that. So I thought I figured out an option by having more than one section for each in the pyTiVo config. I assumed they would both show up on my TiVo. Apparently not, as I see just one of them. here's what I have set:

Section 1:
Name: TiVo Recordings
Type: video
Path is selected and accurate

Section 2:
Name: Timelord
Type: webvideo
Path is selected and accurate

When I browse from my TiVo, only Section 2 is viewable, this is the "other" collection from above.

It'd be nice if pyTiVo respected the shortcut, but it doesn't. But can it show two of these at the same time? If it can't, then how can I get it to look at more than one directory for my recordings, as I was under the impression this was one of the features of the software over TDP.
__________________
Joe Siegler -
To view links or images in signatures your post count must be 10 or greater. You currently have 0 posts.

TiVo Roamio 75hr unmodified, TiVo Roamio 316hr/2TB, both OTA only.
Joe Siegler is offline   Reply With Quote
Old 09-09-2013, 01:22 AM   #4449
wmcbrine
Resistance Useless
 
wmcbrine's Avatar
 
Join Date: Aug 2003
Posts: 9,019
"type" is not arbitrary -- it selects the plugin pyTivo will use to handle requests for that share. In this case, they should both be type "video". "webvideo" is a whole other plugin.

Edit: Oh, I see that you said #2, the one set to webvideo, is the one that is visible. But I have to assume that's a mistake.
__________________

To view links or images in signatures your post count must be 10 or greater. You currently have 0 posts.

Last edited by wmcbrine : 09-09-2013 at 03:30 AM.
wmcbrine is online now   Reply With Quote
Old 09-09-2013, 01:25 AM   #4450
wmcbrine
Resistance Useless
 
wmcbrine's Avatar
 
Join Date: Aug 2003
Posts: 9,019
Also, Windows shortcuts aren't plain. At least not if you're operating at the level of standard portable file functions, as pyTivo mostly does, instead of the Windows API level.

http://en.wikipedia.org/wiki/File_sh...rosoft_Windows
__________________

To view links or images in signatures your post count must be 10 or greater. You currently have 0 posts.

Last edited by wmcbrine : 09-09-2013 at 03:36 AM.
wmcbrine is online now   Reply With Quote
Old 09-09-2013, 06:47 AM   #4451
pmiranda
Registered User
 
Join Date: Feb 2003
Location: Austin, TX
Posts: 627
I'd forget the shortcut and just give pytivo the real path. If you're trying to get to a network path you can assign it a drive letter and then go from there.
__________________
- Sony S1 from 2001 with CacheCard+Ethernet
- Series 3 1TB, now with new power supply!
- Premiere
pmiranda is offline   Reply With Quote
Old 09-09-2013, 09:41 AM   #4452
philhu
User Since Day ONE!
 
philhu's Avatar
 
Join Date: Apr 2001
Location: Funcity, MA
Posts: 672
I did find a problem with Win8 and Network drives using drive letters (like W: )

In writing a quickie merge program, a VB program was giving an error when my drive path for a data file open was on a network mapped drive. So:

W:\data\thisfile.dat

gave error 'Path not found'

So, I changed to UNC and it worked:

\\qnap412\mappoint\data\thisfile.dat

A few other programs I used mapped drive letter in win7 do not seem to like the mapped drive letters in win8, Emule is an example. Won't let you setup directories with mapped drive letters in Win8, if you can get one in (editting the config file, etc), it just dies with 'nvalid path' when the program opens.

I think MS is depreciating mapped drive letters in Win8. Maybe you are seeing that with this discussion
__________________
-----------------
Phillips (S1-retired)
Sony SVR-2000 (S1-retired)
Tivo (S2-retired, 500gb HD, 2 units)
TivoHD (2tb HD, chip mod, 2 units)
Tivo Premiere (2tb HD)
Tivo Premiere4 (2tb (JMFS) HD)
philhu is offline   Reply With Quote
Old 09-09-2013, 11:18 AM   #4453
wmcbrine
Resistance Useless
 
wmcbrine's Avatar
 
Join Date: Aug 2003
Posts: 9,019
Quote:
Originally Posted by philhu View Post
I did find a problem with Win8 and Network drives using drive letters (like W: )
I don't think the problem is with drive letters per se, it's with when those letters are mapped. I'm guessing that you're running pyTivo as a service, yes? Presumably the drive letters are mapped after that point, only for a login session, and maybe only for a specific user. Anyway, if you ran pyTivo from a command window after you logged in, I expect the drive letters would work.
__________________

To view links or images in signatures your post count must be 10 or greater. You currently have 0 posts.
wmcbrine is online now   Reply With Quote
Old 09-09-2013, 11:59 AM   #4454
philhu
User Since Day ONE!
 
philhu's Avatar
 
Join Date: Apr 2001
Location: Funcity, MA
Posts: 672
Quote:
Originally Posted by wmcbrine View Post
I don't think the problem is with drive letters per se, it's with when those letters are mapped. I'm guessing that you're running pyTivo as a service, yes? Presumably the drive letters are mapped after that point, only for a login session, and maybe only for a specific user. Anyway, if you ran pyTivo from a command window after you logged in, I expect the drive letters would work.

Anyway, my comment was for other programs. I run pytivo on a CENTOS vm and haven't had the problem.

I was commenting that something in Win8 is a bit different as programs that worked fine, even not as a service (like EMule) now no longer like network mapped drives, ever running on the desktop.

I mentioned this as maybe this (I call it a ) bug might be affecting pytivo for the said user in the way I describe
__________________
-----------------
Phillips (S1-retired)
Sony SVR-2000 (S1-retired)
Tivo (S2-retired, 500gb HD, 2 units)
TivoHD (2tb HD, chip mod, 2 units)
Tivo Premiere (2tb HD)
Tivo Premiere4 (2tb (JMFS) HD)
philhu is offline   Reply With Quote
Old 09-09-2013, 12:28 PM   #4455
lpwcomp
Registered User
 
Join Date: May 2002
Location: John's Creek, Georgia
Posts: 5,124
Quote:
Originally Posted by philhu View Post
I mentioned this as maybe this (I call it a ) bug might be affecting pytivo for the said user in the way I describe
If you're referring to Joe Siegler, his issue is shortcuts not working in pyTivo as they did in TD, so he is having to go to separate shares. It was suggested that if he is using network drives, that he map them to drive letters and use the mapped drives when defining the shares.

Count me as a vote against adding support for Windows shortcuts to pyTivo.
__________________
James L. Sutherland
"You know TiVo users. Bunch of b****y little girls" TiVoAxe

"Jessica Fletcher visits Midsomer. Carnage ensues!"
lpwcomp is offline   Reply With Quote
Old 09-09-2013, 01:19 PM   #4456
wmcbrine
Resistance Useless
 
wmcbrine's Avatar
 
Join Date: Aug 2003
Posts: 9,019
Well, there's no need to vote against it. I'd have done it long ago, if it were simple. But every time I look into it (like now), I end up thinking "Ugh. Not worth it."
__________________

To view links or images in signatures your post count must be 10 or greater. You currently have 0 posts.
wmcbrine is online now   Reply With Quote
Old 09-12-2013, 04:57 AM   #4457
monkeydust
Registered User
 
Join Date: Dec 2004
Posts: 469
Can somebody assist me in what is going on here when I try to transfer a show to my Tivo? It is an exact program I have transfered before but now it just creates a temp file but never actually gets sent. Here is a log where I am trying to push to my Elite and then trying my Plus. Thanks!

Code:
INFO:pyTivo:Last modified: Sun Aug 25 05:45:58 2013
INFO:pyTivo:Python: 2.7.5
INFO:pyTivo:System: Windows-8-6.2.9200
INFO:pyTivo.beacon:Scanning for TiVos...
INFO:pyTivo.beacon:Announcing shares...
INFO:pyTivo.beacon:Registering: MyMovies
INFO:pyTivo:pyTivo is ready.
INFO:pyTivo:192.168.1.114 [12/Sep/2013 05:50:11] "GET /TiVoConnect?Command=Query
Container&Container=%2F&DoGenres=1 HTTP/1.0" 200 -
INFO:pyTivo:192.168.1.123 [12/Sep/2013 05:50:11] "GET /TiVoConnect?Command=Query
Container&Container=%2F&DoGenres=1 HTTP/1.0" 200 -
INFO:pyTivo:192.168.1.103 [12/Sep/2013 05:50:11] "GET /TiVoConnect?Command=Query
Container&Container=%2F&DoGenres=1 HTTP/1.0" 200 -
INFO:pyTivo:192.168.1.125 [12/Sep/2013 05:50:11] "GET /TiVoConnect?Command=Query
Container&Container=%2F&DoGenres=1 HTTP/1.0" 200 -
INFO:pyTivo:192.168.1.114 [12/Sep/2013 05:50:11] "GET /TiVoConnect?Command=Query
Container&Container=%2F&DoGenres=1 HTTP/1.0" 200 -
INFO:pyTivo.video.video:[12/Sep/2013 05:50:16] Queued "e:\Videos\Game of Thrones
 S03\Game.of.Thrones.S03E01.mkv" for Push to Elite
INFO:pyTivo:127.0.0.1 [12/Sep/2013 05:50:16] "POST /TiVoConnect HTTP/1.1" 200 -
INFO:pyTivo:127.0.0.1 [12/Sep/2013 05:50:16] "GET /TiVoConnect?Command=QueryCont
ainer&Container=MyMovies/Game%20of%20Thrones%20S03&Format=text/html HTTP/1.1" 20
0 -
ffmpeg version 1.1 Copyright (c) 2000-2013 the FFmpeg developers
  built on Jan  8 2013 16:19:15 with gcc 4.7.2 (GCC)
  configuration: --disable-static --enable-shared --enable-gpl --enable-version3
 --disable-w32threads --enable-avisynth --enable-bzlib --enable-fontconfig --ena
ble-frei0r --enable-gnutls --enable-libass --enable-libbluray --enable-libcaca -
-enable-libfreetype --enable-libgsm --enable-libmp3lame --enable-libopencore-amr
nb --enable-libopencore-amrwb --enable-libopenjpeg --enable-libopus --enable-lib
rtmp --enable-libschroedinger --enable-libtheora --enable-libtwolame --enable-li
bvo-aacenc --enable-libvo-amrwbenc --enable-libvorbis --enable-libvpx --enable-l
ibx264 --enable-libxavs --enable-libxvid --enable-zlib
  libavutil      52. 13.100 / 52. 13.100
  libavcodec     54. 86.100 / 54. 86.100
  libavformat    54. 59.106 / 54. 59.106
  libavdevice    54.  3.102 / 54.  3.102
  libavfilter     3. 32.100 /  3. 32.100
  libswscale      2.  1.103 /  2.  1.103
  libswresample   0. 17.102 /  0. 17.102
  libpostproc    52.  2.100 / 52.  2.100
Input #0, matroska,webm, from 'e:\Videos\Game of Thrones S03\Game.of.Thrones.S03
E01.mkv':
  Metadata:
    creation_time   : 2013-04-01 04:01:21
  Duration: 00:56:29.92, start: 0.000000, bitrate: 3300 kb/s
    Stream #0:0(eng): Video: h264 (High), yuv420p, 1280x720, SAR 1:1 DAR 16:9, 2
3.98 fps, 23.98 tbr, 1k tbn, 47.95 tbc (default)
    Stream #0:1: Audio: ac3, 48000 Hz, stereo, fltp, 384 kb/s (default)
Please use -b:a or -b:v, -b is ambiguous
[mp4 @ 0000000000511660] track 1: codec frame size is not set
Output #0, mp4, to 'e:\Videos\Game of Thrones S03\Game.of.Thrones.S03E01.mkv.pyT
ivo-temp':
  Metadata:
    encoder         : Lavf54.59.106
    Stream #0:0(eng): Video: h264 ([33][0][0][0] / 0x0021), yuv420p, 1280x720 [S
AR 1:1 DAR 16:9], q=2-31, 23.98 fps, 16k tbn, 1k tbc (default)
    Stream #0:1: Audio: ac3 ([165][0][0][0] / 0x00A5), 48000 Hz, stereo, 384 kb/
s (default)
Stream mapping:
  Stream #0:0 -> #0:0 (copy)
  Stream #0:1 -> #0:1 (copy)
Press [q] to stop, [?] for help
frame= 6138 fps=0.0 q=-1.0 size=  115885kB time=00:04:16.19 bitrate=3705.5kbits/
frame= 9368 fps=9357 q=-1.0 size=  201729kB time=00:06:30.75 bitrate=4229.2kbits
frame=14273 fps=9508 q=-1.0 size=  318887kB time=00:09:55.39 bitrate=4387.6kbits
frame=21066 fps=10516 q=-1.0 size=  405375kB time=00:14:38.68 bitrate=3779.3kbit
frame=21595 fps=8616 q=-1.0 size=  412281kB time=00:15:00.86 bitrate=3749.1kbits
frame=27591 fps=9177 q=-1.0 size=  487470kB time=00:19:10.97 bitrate=3469.5kbits
frame=30810 fps=8779 q=-1.0 size=  541154kB time=00:21:25.21 bitrate=3449.3kbits
frame=32563 fps=8121 q=-1.0 size=  582885kB time=00:22:38.24 bitrate=3515.6kbits
frame=40835 fps=9055 q=-1.0 size=  699878kB time=00:28:23.29 bitrate=3366.1kbits
frame=42647 fps=8499 q=-1.0 size=  722293kB time=00:29:38.75 bitrate=3326.5kbits
frame=43241 fps=7833 q=-1.0 size=  729326kB time=00:30:03.55 bitrate=3312.7kbits
frame=43830 fps=7277 q=-1.0 size=  736231kB time=00:30:28.19 bitrate=3299.0kbits
frame=44571 fps=6833 q=-1.0 size=  745262kB time=00:30:59.13 bitrate=3283.9kbits
frame=52012 fps=7406 q=-1.0 size=  861151kB time=00:36:09.50 bitrate=3251.7kbits
frame=55546 fps=7384 q=-1.0 size=  930955kB time=00:38:36.76 bitrate=3291.8kbits
frame=55886 fps=6961 q=-1.0 size=  938485kB time=00:38:51.20 bitrate=3297.9kbits
frame=56258 fps=6592 q=-1.0 size=  946546kB time=00:39:06.43 bitrate=3304.6kbits
frame=56615 fps=6267 q=-1.0 size=  953608kB time=00:39:21.56 bitrate=3308.0kbits
frame=61486 fps=6449 q=-1.0 size= 1029732kB time=00:42:44.73 bitrate=3289.1kbits
frame=68354 fps=6812 q=-1.0 size= 1144573kB time=00:47:31.00 bitrate=3288.8kbits
frame=68729 fps=6521 q=-1.0 size= 1150224kB time=00:47:46.75 bitrate=3286.9kbits
frame=68966 fps=6239 q=-1.0 size= 1154467kB time=00:47:56.57 bitrate=3287.7kbits
frame=69317 fps=5996 q=-1.0 size= 1160997kB time=00:48:11.13 bitrate=3289.7kbits
frame=70028 fps=5806 q=-1.0 size= 1177666kB time=00:48:41.02 bitrate=3302.8kbits
frame=75732 fps=6029 q=-1.0 size= 1292867kB time=00:52:38.72 bitrate=3353.0kbits
frame=78542 fps=6013 q=-1.0 size= 1344322kB time=00:54:35.90 bitrate=3361.7kbits
frame=79117 fps=5833 q=-1.0 size= 1351237kB time=00:55:00.00 bitrate=3354.3kbits
frame=80953 fps=5754 q=-1.0 size= 1358100kB time=00:56:16.57 bitrate=3294.9kbits
frame=81276 fps=5646 q=-1.0 Lsize= 1367442kB time=00:56:29.92 bitrate=3304.5kbit
s/s
video:1206002kB audio:158902kB subtitle:0 global headers:0kB muxing overhead 0.1
85923%
INFO:pyTivo:127.0.0.1 [12/Sep/2013 05:52:47] "GET /TiVoConnect?Command=NPL&Conta
iner=ToGo&TiVo=192.168.1.103 HTTP/1.1" 200 -
INFO:pyTivo:127.0.0.1 [12/Sep/2013 05:52:47] "GET /main.css HTTP/1.1" 200 -
INFO:pyTivo:127.0.0.1 [12/Sep/2013 05:52:47] "GET /nocopy.png HTTP/1.1" 200 -
INFO:pyTivo:127.0.0.1 [12/Sep/2013 05:52:47] "GET /folder.png HTTP/1.1" 200 -
INFO:pyTivo:127.0.0.1 [12/Sep/2013 05:52:47] "GET /TiVoConnect?Command=QueryCont
ainer&Container=MyMovies/Game%20of%20Thrones%20S03&Format=text/html HTTP/1.1" 20
0 -
INFO:pyTivo.video.video:[12/Sep/2013 05:53:05] Queued "e:\Videos\Game of Thrones
 S03\Game.of.Thrones.S03E01.mkv" for Push to Series 5 Plus
INFO:pyTivo:127.0.0.1 [12/Sep/2013 05:53:05] "POST /TiVoConnect HTTP/1.1" 200 -
INFO:pyTivo:127.0.0.1 [12/Sep/2013 05:53:10] "GET /TiVoConnect?Command=QueryCont
ainer&Container=MyMovies/Game%20of%20Thrones%20S03&Format=text/html HTTP/1.1" 20
0 -
INFO:pyTivo.video.video:[12/Sep/2013 05:53:26] Queued "e:\Videos\Game of Thrones
 S03\Game.of.Thrones.S03E01.mkv" for Push to Series 5 Plus
INFO:pyTivo:127.0.0.1 [12/Sep/2013 05:53:26] "POST /TiVoConnect HTTP/1.1" 200 -
INFO:pyTivo:127.0.0.1 [12/Sep/2013 05:53:27] "GET /TiVoConnect?Command=QueryCont
ainer&Container=MyMovies/Game%20of%20Thrones%20S03&Format=text/html HTTP/1.1" 20
0 -
ffmpeg version 1.1 Copyright (c) 2000-2013 the FFmpeg developers
  built on Jan  8 2013 16:19:15 with gcc 4.7.2 (GCC)
  configuration: --disable-static --enable-shared --enable-gpl --enable-version3
 --disable-w32threads --enable-avisynth --enable-bzlib --enable-fontconfig --ena
ble-frei0r --enable-gnutls --enable-libass --enable-libbluray --enable-libcaca -
-enable-libfreetype --enable-libgsm --enable-libmp3lame --enable-libopencore-amr
nb --enable-libopencore-amrwb --enable-libopenjpeg --enable-libopus --enable-lib
rtmp --enable-libschroedinger --enable-libtheora --enable-libtwolame --enable-li
bvo-aacenc --enable-libvo-amrwbenc --enable-libvorbis --enable-libvpx --enable-l
ibx264 --enable-libxavs --enable-libxvid --enable-zlib
  libavutil      52. 13.100 / 52. 13.100
  libavcodec     54. 86.100 / 54. 86.100
  libavformat    54. 59.106 / 54. 59.106
  libavdevice    54.  3.102 / 54.  3.102
  libavfilter     3. 32.100 /  3. 32.100
  libswscale      2.  1.103 /  2.  1.103
  libswresample   0. 17.102 /  0. 17.102
  libpostproc    52.  2.100 / 52.  2.100
Input #0, matroska,webm, from 'e:\Videos\Game of Thrones S03\Game.of.Thrones.S03
E01.mkv':
  Metadata:
    creation_time   : 2013-04-01 04:01:21
  Duration: 00:56:29.92, start: 0.000000, bitrate: 3300 kb/s
    Stream #0:0(eng): Video: h264 (High), yuv420p, 1280x720, SAR 1:1 DAR 16:9, 2
3.98 fps, 23.98 tbr, 1k tbn, 47.95 tbc (default)
    Stream #0:1: Audio: ac3, 48000 Hz, stereo, fltp, 384 kb/s (default)
Please use -b:a or -b:v, -b is ambiguous
[mp4 @ 0000000001dd1660] track 1: codec frame size is not set
Output #0, mp4, to 'e:\Videos\Game of Thrones S03\Game.of.Thrones.S03E01.mkv.pyT
ivo-temp':
  Metadata:
    encoder         : Lavf54.59.106
    Stream #0:0(eng): Video: h264 ([33][0][0][0] / 0x0021), yuv420p, 1280x720 [S
AR 1:1 DAR 16:9], q=2-31, 23.98 fps, 16k tbn, 1k tbc (default)
    Stream #0:1: Audio: ac3 ([165][0][0][0] / 0x00A5), 48000 Hz, stereo, 384 kb/
s (default)
Stream mapping:
  Stream #0:0 -> #0:0 (copy)
  Stream #0:1 -> #0:1 (copy)
Press [q] to stop, [?] for help
frame= 8702 fps=0.0 q=-1.0 size=  178362kB time=00:06:02.94 bitrate=4025.8kbits/
frame=17958 fps=17956 q=-1.0 size=  365604kB time=00:12:29.18 bitrate=3997.7kbit
frame=30096 fps=20061 q=-1.0 size=  529527kB time=00:20:55.29 bitrate=3455.7kbit
frame=41041 fps=20518 q=-1.0 size=  703458kB time=00:28:31.84 bitrate=3366.4kbit
frame=52230 fps=20873 q=-1.0 size=  867167kB time=00:36:18.49 bitrate=3260.9kbit
frame=55269 fps=18402 q=-1.0 size=  926545kB time=00:38:25.24 bitrate=3292.6kbit
frame=58917 fps=16817 q=-1.0 size=  986394kB time=00:40:57.37 bitrate=3288.3kbit
frame=62312 fps=15518 q=-1.0 size= 1046362kB time=00:43:18.97 bitrate=3298.1kbit
frame=65835 fps=14576 q=-1.0 size= 1105763kB time=00:45:45.95 bitrate=3298.8kbit
frame=69536 fps=13831 q=-1.0 size= 1166162kB time=00:48:20.38 bitrate=3293.8kbit
frame=72110 fps=13024 q=-1.0 size= 1226547kB time=00:50:07.58 bitrate=3340.8kbit
frame=75449 fps=12498 q=-1.0 size= 1286044kB time=00:52:27.16 bitrate=3347.5kbit
frame=78217 fps=11962 q=-1.0 size= 1340221kB time=00:54:22.30 bitrate=3365.4kbit
frame=81276 fps=12013 q=-1.0 Lsize= 1367442kB time=00:56:29.92 bitrate=3304.5kbi
ts/s
video:1206002kB audio:158902kB subtitle:0 global headers:0kB muxing overhead 0.1
85923%

__________________
Active: Series 5 Plus, Series 4 Elite, Mini
Retired: S1, S2, & S3
monkeydust is offline   Reply With Quote
Old 09-12-2013, 08:06 AM   #4458
wmcbrine
Resistance Useless
 
wmcbrine's Avatar
 
Join Date: Aug 2003
Posts: 9,019
Quote:
Originally Posted by monkeydust View Post
It is an exact program I have transfered before but now it just creates a temp file but never actually gets sent.
That just sounds like a typical problem with mind.tivo.com. There's nothing wrong in the log.

Try adding ts=on to the Server section of your pyTivo.conf and pulling instead.
__________________

To view links or images in signatures your post count must be 10 or greater. You currently have 0 posts.
wmcbrine is online now   Reply With Quote
Old 09-12-2013, 01:07 PM   #4459
cr33p
Registered User
 
Join Date: Jan 2005
Location: Ann Arbor MI
Posts: 644
Are there any plans of someone developing and Android app to "push" files to TiVo's over your local network? With the Mini being added to the mix my biggest gripe I have is the inability to xfer a show or movie from pytivo to the unit. Creating a PyTivo app using the push functionality would be a sweet work around.
cr33p is offline   Reply With Quote
Old 09-12-2013, 01:17 PM   #4460
moyekj
Registered User
 
Join Date: Jan 2006
Location: Mission Viejo, CA
Posts: 9,064
Quote:
Originally Posted by cr33p View Post
Are there any plans of someone developing and Android app to "push" files to TiVo's over your local network? With the Mini being added to the mix my biggest gripe I have is the inability to xfer a show or movie from pytivo to the unit. Creating a PyTivo app using the push functionality would be a sweet work around.
You can do it from the Mini itself already via HME using Streambaby (uses its own server) or vidmgr (uses pyTivo server). See:
Streambaby and Mini

If you WANT to use an Android device you could connect to <pyTivo machine IP>:9032 pyTivo interface with a browser and initiate push from there...
__________________
Roamio Pro, Elite, Premiere
Cox - Motorola CableCards & TAs
Slingbox 350 via TiVo Mini & TiVo Stream for remote viewing

To view links or images in signatures your post count must be 10 or greater. You currently have 0 posts.


To view links or images in signatures your post count must be 10 or greater. You currently have 0 posts.
moyekj is offline   Reply With Quote
Old 09-12-2013, 02:22 PM   #4461
jrtroo
User
 
Join Date: Feb 2008
Posts: 2,449
Quote:
Originally Posted by moyekj View Post
If you WANT to use an Android device you could connect to <pyTivo machine IP>:9032 pyTivo interface with a browser and initiate push from there...
I do this all the time. In fact, I have my WHS and Tivos set with a fixed IPs so that I can have shortcuts set up to initiate these transfers. I use this same method for all personal devices and PCs in the house, Android, iOS, and Windows XP/Vista/7/8.
__________________
TiVo Owner
jrtroo is offline   Reply With Quote
Old 09-12-2013, 04:29 PM   #4462
monkeydust
Registered User
 
Join Date: Dec 2004
Posts: 469
Quote:
Originally Posted by wmcbrine View Post
That just sounds like a typical problem with mind.tivo.com. There's nothing wrong in the log.

Try adding ts=on to the Server section of your pyTivo.conf and pulling instead.
Thanks. That didn't work so I did a bit of searching and found the answer in a post of yours from a few years ago. Answer was stagingmind.

EDIT: Well, I am still having some issues. When it does transfer, it is 20% of the speed I have transferred with previously. I have gotten half of my stuff transferred but still having issues with the other half for whatever reason (no errors, just not working).

EDIT2: it lost my stagingmind server somehow. Added it back and got everything transferred.
__________________
Active: Series 5 Plus, Series 4 Elite, Mini
Retired: S1, S2, & S3

Last edited by monkeydust : 09-12-2013 at 07:10 PM.
monkeydust is offline   Reply With Quote
Old 09-12-2013, 08:36 PM   #4463
lpwcomp
Registered User
 
Join Date: May 2002
Location: John's Creek, Georgia
Posts: 5,124
Quote:
Originally Posted by jrtroo View Post
I do this all the time. In fact, I have my WHS and Tivos set with a fixed IPs so that I can have shortcuts set up to initiate these transfers. I use this same method for all personal devices and PCs in the house, Android, iOS, and Windows XP/Vista/7/8.
While I don't generally use it to initiate a push, I do use this method to look at the NPL of my TiVo 2 and THD from my HTC One X, which the TiVo app cannot do.
__________________
James L. Sutherland
"You know TiVo users. Bunch of b****y little girls" TiVoAxe

"Jessica Fletcher visits Midsomer. Carnage ensues!"
lpwcomp is offline   Reply With Quote
Old 09-12-2013, 11:57 PM   #4464
Joe Siegler
Registered User
 
Joe Siegler's Avatar
 
Join Date: May 2000
Location: Garland, TX
Posts: 697
Quote:
Originally Posted by lpwcomp View Post
If you're referring to Joe Siegler, his issue is shortcuts not working in pyTivo as they did in TD, so he is having to go to separate shares. It was suggested that if he is using network drives, that he map them to drive letters and use the mapped drives when defining the shares.

Count me as a vote against adding support for Windows shortcuts to pyTivo.
I was't asking for them to be added, just a random comment that what I was using before didn't work "straight out" with pyTiVo.

I did end up adding both on pyTiVo, but with TD+ I had a Windows shortcut to the other in the path of the first.

Also, both are external hard drives on my main computer. On that computer, they're drive letters H & I respectively.
__________________
Joe Siegler -
To view links or images in signatures your post count must be 10 or greater. You currently have 0 posts.

TiVo Roamio 75hr unmodified, TiVo Roamio 316hr/2TB, both OTA only.
Joe Siegler is offline   Reply With Quote
Old 09-13-2013, 02:08 AM   #4465
wuzznuubi
Registered User
 
Join Date: Jan 2013
Posts: 41
Quote:
Originally Posted by Joe Siegler View Post
I was't asking for them to be added, just a random comment that what I was using before didn't work "straight out" with pyTiVo.

I did end up adding both on pyTiVo, but with TD+ I had a Windows shortcut to the other in the path of the first.

Also, both are external hard drives on my main computer. On that computer, they're drive letters H & I respectively.
Windows mklink /D http://en.wikipedia.org/wiki/NTFS_symbolic_link
wuzznuubi is offline   Reply With Quote
Old 09-13-2013, 08:33 AM   #4466
Joe Siegler
Registered User
 
Joe Siegler's Avatar
 
Join Date: May 2000
Location: Garland, TX
Posts: 697
Quote:
Originally Posted by wuzznuubi View Post
Tkx. I'll check that out.
__________________
Joe Siegler -
To view links or images in signatures your post count must be 10 or greater. You currently have 0 posts.

TiVo Roamio 75hr unmodified, TiVo Roamio 316hr/2TB, both OTA only.
Joe Siegler is offline   Reply With Quote
Old 09-22-2013, 10:40 AM   #4467
Thomaseo1
Registered User
 
Join Date: Apr 2012
Posts: 7
Share Folder Limit Problem

I've been using PyTivo on Linux Mint 14 for the past several months and didn't notice a large issue that I'm consistently having. Shares are being limited to around 312 folders in side a singe share. I have around 600 folders in 1 share and PyTivo is cutting it off about half way, so I'm missing the other 288 folders.
Is there a conf setting or a python file that I can use to fix this issue?

Last edited by Thomaseo1 : 09-22-2013 at 10:42 AM. Reason: Clarification
Thomaseo1 is offline   Reply With Quote
Old 09-22-2013, 11:45 AM   #4468
wmcbrine
Resistance Useless
 
wmcbrine's Avatar
 
Join Date: Aug 2003
Posts: 9,019
There's no limit in pyTivo. I'd guess that it was running into something in the list that it didn't like, and stopping there. But I'd need much more info.

There may be limits on the TiVo side.

P.S. You could try making it more hierarchical, i.e. add some more layers. 20 folders of 30 folders each (for example) would probably be easier to navigate than a list of 600, especially from the TiVo, never mind whether it can actually handle such a large list.
__________________

To view links or images in signatures your post count must be 10 or greater. You currently have 0 posts.

Last edited by wmcbrine : 09-22-2013 at 07:08 PM.
wmcbrine is online now   Reply With Quote
Old 09-23-2013, 02:20 AM   #4469
Wil
Senile Member
 
Join Date: Sep 2002
Posts: 2,259
Generating metadata txt files?

I have many thousands of movies, mpeg 1,2,4 in .avi, .mpeg, .mp4, .mkv and lots of other file types. I'd like to generate "filename.txt" pyTivo-compatible files for them.

I've found some programs that don't like my format: "Movie Name (year) - Director additional info.avi" (or .mkv or whatever type). Example: "Casablanca (1942) - Curtiz dvd.mkv"

Other programs like my format just fine, but access only limited sources like Netflix and don't get matches on a lot of stuff.

Is there a single program that will take this format and access lots of sources, say including imdb, and give me pyTivo-compatible text files?

I personally use Plex to watch my film library and it gives me descriptions on 95%+ of my library. But the family likes to use the familiar Tivo (and thus pyTivo), and they want descriptions.

Alternatively, is there any way to extract "Movie Title.txt" pyTivo-compatible metadata files from Plex?

Thanks!
Wil is offline   Reply With Quote
Old 09-23-2013, 01:46 PM   #4470
Soapm
Registered User
 
Soapm's Avatar
 
Join Date: May 2007
Location: So close, yet too far away
Posts: 1,475
Quote:
Originally Posted by Wil View Post
I have many thousands of movies, mpeg 1,2,4 in .avi, .mpeg, .mp4, .mkv and lots of other file types. I'd like to generate "filename.txt" pyTivo-compatible files for them.
Do a search for a program called "metegenerator" and see if that's what you need.
Soapm is offline   Reply With Quote
Reply
Forum Jump




Thread Tools


Posting Rules
You may not post new threads
You may not post replies
You may not post attachments
You may not edit your posts

vB code is On
Smilies are On
[IMG] code is On
HTML code is Off

Advertisements

TiVo Community
Powered by vBulletin® Version 3.6.8
Copyright ©2000 - 2014, Jelsoft Enterprises Ltd.
vBulletin Skins by: Relivo Media

(C) 2013 Magenium Solutions - All Rights Reserved. No information may be posted elsewhere without written permission.
TiVoŽ is a registered trademark of TiVo Inc. This site is not owned or operated by TiVo Inc.
All times are GMT -5. The time now is 10:54 PM.
OUR NETWORK: MyOpenRouter | TechLore | SansaCommunity | RoboCommunity | MediaSmart Home | Explore3DTV | Dijit Community | DVR Playground |