TiVo Community
TiVo Community
TiVo Community
Go Back   TiVo Community > Main TiVo Forums > TiVo Home Media Features & TiVoToGo
TiVo Community
Reply
Forum Jump
 
Thread Tools
Old 04-14-2014, 02:28 PM   #4621
lpwcomp
Registered User
 
Join Date: May 2002
Location: John's Creek, Georgia
Posts: 5,532
Quote:
Originally Posted by brooklynsour View Post
You could have just copied the text from the window and pasted it into your post.
__________________
James L. Sutherland
"You know TiVo users. Bunch of b****y little girls" TiVoAxe

"Jessica Fletcher visits Midsomer. Carnage ensues!"
lpwcomp is offline   Reply With Quote
Old 04-14-2014, 04:02 PM   #4622
rassi
Registered User
 
rassi's Avatar
 
Join Date: Jul 2003
Location: NE Ohio
Posts: 112
Quote:
Originally Posted by lpwcomp View Post
You could have just copied the text from the window and pasted it into your post.
Probably doesn't know how to do that. A lot of people aren't familiar with cut-n-paste in a command line window.
rassi is offline   Reply With Quote
Old 04-14-2014, 04:19 PM   #4623
lpwcomp
Registered User
 
Join Date: May 2002
Location: John's Creek, Georgia
Posts: 5,532
Quote:
Originally Posted by rassi View Post
Probably doesn't know how to do that. A lot of people aren't familiar with cut-n-paste in a command line window.
Precisely why I phrased it as I did, rather than "should have" or "why didn't you...?".
__________________
James L. Sutherland
"You know TiVo users. Bunch of b****y little girls" TiVoAxe

"Jessica Fletcher visits Midsomer. Carnage ensues!"
lpwcomp is offline   Reply With Quote
Old 04-14-2014, 05:15 PM   #4624
brooklynsour
Registered User
 
Join Date: Apr 2014
Posts: 16
Quote:
Originally Posted by lpwcomp View Post
You could have just copied the text from the window and pasted it into your post.
i tried both to highlight with my mouse and crtl A but it didnt and i dont know other way if you can tell me how thanks,,, as for the error code if i didnt change anything inside the python folders why did it work before and not anymore? sorry for the 4 useless posts
brooklynsour is offline   Reply With Quote
Old 04-14-2014, 05:22 PM   #4625
moyekj
Registered User
 
Join Date: Jan 2006
Location: Mission Viejo, CA
Posts: 9,299
Quote:
Originally Posted by brooklynsour View Post
i tried both to highlight with my mouse and crtl A but it didnt and i dont know other way if you can tell me how thanks,,, as for the error code if i didnt change anything inside the python folders why did it work before and not anymore? sorry for the 4 useless posts
To check ffmpeg that you have configured from windows explorer go to C:\pyTivo\bin folder and check if you have ffmpeg.exe there. If you don't see it then that's a problem. If you do see it then check if you can run it as follows:
From Start menu type:
cmd
Then in the cmd window type:
C:\pyTivo\bin\ffmpeg.exe
__________________
Roamio Pro, Elite, Premiere
Cox - Motorola CableCards & TAs
Slingbox 350 via TiVo Mini & TiVo Stream for remote viewing

To view links or images in signatures your post count must be 10 or greater. You currently have 0 posts.


To view links or images in signatures your post count must be 10 or greater. You currently have 0 posts.
moyekj is offline   Reply With Quote
Old 04-14-2014, 05:26 PM   #4626
lpwcomp
Registered User
 
Join Date: May 2002
Location: John's Creek, Georgia
Posts: 5,532
Quote:
Originally Posted by brooklynsour View Post
i tried both to highlight with my mouse and crtl A but it didnt and i dont know other way if you can tell me how thanks,,, as for the error code if i didnt change anything inside the python folders why did it work before and not anymore? sorry for the 4 useless posts
Left click on the upper left corner of the command window. Select "Edit" "Mark". Click and drag to highlight the text. Then select "Edit" "Copy" to copy to the clipboard.
__________________
James L. Sutherland
"You know TiVo users. Bunch of b****y little girls" TiVoAxe

"Jessica Fletcher visits Midsomer. Carnage ensues!"
lpwcomp is offline   Reply With Quote
Old 04-14-2014, 05:54 PM   #4627
brooklynsour
Registered User
 
Join Date: Apr 2014
Posts: 16
@moyekj Microsoft Windows [Version 6.1.7601]
Copyright (c) 2009 Microsoft Corporation. All rights reserved.
C:\Users\Meech>C:\Users\pytivo-master\bin\ffmpeg.exe
ffmpeg version N-62439-g5e379cd Copyright (c) 2000-2014 the FFmpeg developers
built on Apr 13 2014 22:08:47 with gcc 4.8.2 (GCC)
configuration: --enable-gpl --enable-version3 --disable-w32threads --enable-av
isynth --enable-bzlib --enable-fontconfig --enable-frei0r --enable-gnutls --enab
le-iconv --enable-libass --enable-libbluray --enable-libcaca --enable-libfreetyp
e --enable-libgsm --enable-libilbc --enable-libmodplug --enable-libmp3lame --ena
ble-libopencore-amrnb --enable-libopencore-amrwb --enable-libopenjpeg --enable-l
ibopus --enable-librtmp --enable-libschroedinger --enable-libsoxr --enable-libsp
eex --enable-libtheora --enable-libtwolame --enable-libvidstab --enable-libvo-aa
cenc --enable-libvo-amrwbenc --enable-libvorbis --enable-libvpx --enable-libwavp
ack --enable-libx264 --enable-libx265 --enable-libxavs --enable-libxvid --enable
-zlib
libavutil 52. 76.100 / 52. 76.100
libavcodec 55. 58.103 / 55. 58.103
libavformat 55. 37.100 / 55. 37.100
libavdevice 55. 13.100 / 55. 13.100
libavfilter 4. 4.100 / 4. 4.100
libswscale 2. 6.100 / 2. 6.100
libswresample 0. 18.100 / 0. 18.100
libpostproc 52. 3.100 / 52. 3.100
Hyper fast Audio and Video encoder
usage: ffmpeg [options] [[infile options] -i infile]... {[outfile options] outfi
le}...

Use -h to get full help or, even better, run 'man ffmpeg'

C:\Users\Meech>
brooklynsour is offline   Reply With Quote
Old 04-14-2014, 05:58 PM   #4628
brooklynsour
Registered User
 
Join Date: Apr 2014
Posts: 16
@lpwcomp thank you very much learned something new lol....

i do have the ffmpeg.exe along with 2 other ffplay.exe and ffprobe.exe
i still have the same error message as my first screen shot on last page, i honestly dont think that its the problem. my tivo sees the movie folder once i click on it it says please wait and then says now playing list couldnt not be displayed because it is unabailable, press left to return to the my shows list
brooklynsour is offline   Reply With Quote
Old 04-14-2014, 06:12 PM   #4629
brooklynsour
Registered User
 
Join Date: Apr 2014
Posts: 16
INFO: pyTivo:Python: 2.7.6
INFO: pyTivo:System: Windows-7-6.1.7601-SP1
INFO: pyTivo.beacon:Scanning for TiVos...
INFO: pyTivo.beaconVR Meech
INFO: pyTivo.beacon:Announcing shares...
INFOyTivo.beacon:Registering: Movies
INFOyTivoyTivo is ready.
INFOyTivo:192.168.0.101 [14/Apr/2014 18:19:15] "GET /TiVoConnect?Command=Query
Container&Container=%2F&DoGenres=1 HTTP/1.0" 200 -
brooklynsour is offline   Reply With Quote
Old 04-14-2014, 06:16 PM   #4630
gonzotek
tivo_xml developer
 
gonzotek's Avatar
 
Join Date: Sep 2004
Location: Outside Phildadelphia
Posts: 2,235
Quote:
C:\Users\Meech>C:\Users\pytivo-master\bin\ffmpeg.exe
This is odd.
This:
Code:
C:\Users\pytivo-master\bin\ffmpeg.exe
isn't generally where you'd put ffmpeg or pytivo. But if that's where you want things, then the ffmpeg setting of pytivo.conf should match.
If you're editing pytivo.conf by hand:
Code:
ffmpeg=C:\Users\pytivo-master\bin\ffmpeg.exe

__________________
Follow @pytivo on Twitter for project updates and more!
To view links or images in signatures your post count must be 10 or greater. You currently have 0 posts.
|
To view links or images in signatures your post count must be 10 or greater. You currently have 0 posts.
A Web app for Roku Remote Control
gonzotek is offline   Reply With Quote
Old 04-14-2014, 06:38 PM   #4631
moyekj
Registered User
 
Join Date: Jan 2006
Location: Mission Viejo, CA
Posts: 9,299
Quote:
Originally Posted by brooklynsour View Post
@lpwcomp thank you very much learned something new lol....

i do have the ffmpeg.exe along with 2 other ffplay.exe and ffprobe.exe
i still have the same error message as my first screen shot on last page, i honestly dont think that its the problem. my tivo sees the movie folder once i click on it it says please wait and then says now playing list couldnt not be displayed because it is unabailable, press left to return to the my shows list
It does seem to be the problem, since the error message says it can't find ffmpeg.exe in the path you have configured for it:
C:\pyTivo\bin\ffmpeg.exe
So as posted above you need to correct the path to ffmpeg since it's looking in above location. Easiest fix instead of editing pyTivo configuration if you don't know how to do that, is copy ffmpeg.exe to the above location.

Where do have pyTivo installed BTW? It would seem like it's under C:\pyTivo, so not sure where C:\Users\pytivo-master is coming from...
__________________
Roamio Pro, Elite, Premiere
Cox - Motorola CableCards & TAs
Slingbox 350 via TiVo Mini & TiVo Stream for remote viewing

To view links or images in signatures your post count must be 10 or greater. You currently have 0 posts.


To view links or images in signatures your post count must be 10 or greater. You currently have 0 posts.
moyekj is offline   Reply With Quote
Old 04-14-2014, 06:46 PM   #4632
brooklynsour
Registered User
 
Join Date: Apr 2014
Posts: 16
i moved the whole python27 folder just simply on my C drive and the pytivo folder inside the python27 folder like so. C:\Python27\pytivo-master ... once i run the pytivo it loads to what i pasted above gonzotek post
brooklynsour is offline   Reply With Quote
Old 04-14-2014, 07:50 PM   #4633
brooklynsour
Registered User
 
Join Date: Apr 2014
Posts: 16
INFO: pyTivo:Last modified: Mon Oct 28 22:14:42 2013
INFO: pyTivo:Python: 2.7.6
INFO: pyTivo:System: Windows-7-6.1.7601-SP1
INFO: pyTivo.beacon:Scanning for TiVos...
INFO: pyTivo.beaconVR Meech
INFO: pyTivo.beacon:Announcing shares...
INFO: pyTivo.beacon:Registering: Movies
INFO: pyTivoyTivo is ready.
INFO: pyTivo:192.168.0.103 [14/Apr/2014 19:54:50] "GET /TiVoConnect?Command=Query
Container&Container=%2F&DoGenres=1 HTTP/1.0" 200 -
INFO: pyTivo:192.168.0.103 [14/Apr/2014 19:55:18] "GET /TiVoConnect?Command=Query
Formats&SourceFormat=video%2Fx-tivo-mpeg HTTP/1.1" 200 -
INFO: pyTivo:192.168.0.103 [14/Apr/2014 19:56:01] "GET /TiVoConnect?Command=Query
Container&Container=Movies&Recurse=Yes&SortOrder=!CaptureDat e&ItemCount=8&Filter
=x-tivo-container%2Ftivo-videos,x-tivo-container%2Ffolder,video%2Fx-tivo-mpeg,vi
deo%2F*&SerialNum=7460001908BAEF1 HTTP/1.1" 200 -
brooklynsour is offline   Reply With Quote
Old 04-15-2014, 12:19 AM   #4634
lpwcomp
Registered User
 
Join Date: May 2002
Location: John's Creek, Georgia
Posts: 5,532
Quote:
Originally Posted by brooklynsour View Post
Code:
INFO: pyTivo:Last modified: Mon Oct 28 22:14:42 2013
INFO: pyTivo:Python: 2.7.6
INFO: pyTivo:System: Windows-7-6.1.7601-SP1
INFO: pyTivo.beacon:Scanning for TiVos...
INFO: pyTivo.beacon:DVR Meech
INFO: pyTivo.beacon:Announcing shares...
INFO: pyTivo.beacon:Registering: Movies
INFO: pyTivo:pyTivo is ready.
INFO: pyTivo:192.168.0.103 [14/Apr/2014 19:54:50] "GET /TiVoConnect?Command=Query
Container&Container=%2F&DoGenres=1 HTTP/1.0" 200 -
INFO: pyTivo:192.168.0.103 [14/Apr/2014 19:55:18] "GET /TiVoConnect?Command=Query
Formats&SourceFormat=video%2Fx-tivo-mpeg HTTP/1.1" 200 -
INFO: pyTivo:192.168.0.103 [14/Apr/2014 19:56:01] "GET /TiVoConnect?Command=Query
Container&Container=Movies&Recurse=Yes&SortOrder=!CaptureDate&ItemCount=8&Filter
=x-tivo-container%2Ftivo-videos,x-tivo-container%2Ffolder,video%2Fx-tivo-mpeg,vi
deo%2F*&SerialNum=7460001908BAEF1 HTTP/1.1" 200 -
So, is it working now? I don't see the error message. If not, post your pytivo.conf file, after "x"ing out any sensitive data like user id and password. BTW, it's generally a good idea to post things like this between "CODE" tags so that the forum s/w doesn't reformat it and you don't get "Smilies". Note that I added them to what I quoted.

Also, there is no real reason to have the pyTivo folder inside the python27 folder. When you installed python, it should have associated .py files with python so that the default action when you open(double click) a .py file is to run python.
__________________
James L. Sutherland
"You know TiVo users. Bunch of b****y little girls" TiVoAxe

"Jessica Fletcher visits Midsomer. Carnage ensues!"
lpwcomp is offline   Reply With Quote
Old 04-15-2014, 05:35 AM   #4635
CoxInPHX
COX Communications
 
CoxInPHX's Avatar
 
Join Date: Jan 2011
Location: Phoenix, AZ
Posts: 1,442
Since I updated ffmpeg.exe to a newer version, 08/08/2013, I get the following message from pyTivo. Pushed and pulled files still work fine, I am just wondering what configuration I need to change, if any, to avoid the message.

What exactly does this message mean?

Please use -b:a or -b:v, -b is ambiguous
[mp4 @ 04576140] track 1: codec frame size is not set

Code:
  Metadata:
    creation_time   : 2014-04-14 04:38:23
  Duration: 00:44:03.58, start: 0.000000, bitrate: 2626 kb/s
    Stream #0:0: Audio: ac3, 48000 Hz, 5.1(side), fltp, 384 kb/s (default)
    Stream #0:1(eng): Video: h264 (High), yuv420p, 1280x720, SAR 1:1 DAR 16:9, 2
3.98 fps, 23.98 tbr, 1k tbn, 47.95 tbc (default)
Please use -b:a or -b:v, -b is ambiguous
[mp4 @ 04576140] track 1: codec frame size is not set
Output #0, mp4, to 'C:\Tivo\Continuum S03E05 - 30 Minutes to Air.mkv.pyTivo-temp

__________________
Roamio Pro, XL4, Premiere 2TB-WD20EURS, & Mini, 20.4.5c, w/ Cisco SDV TA, FW F.2001, Cisco CC FW PKEY1.5.3_F.p.1301

To view links or images in signatures your post count must be 10 or greater. You currently have 0 posts.


To view links or images in signatures your post count must be 10 or greater. You currently have 0 posts.


Last edited by CoxInPHX : 04-15-2014 at 10:10 PM.
CoxInPHX is offline   Reply With Quote
Old 04-15-2014, 09:11 AM   #4636
moyekj
Registered User
 
Join Date: Jan 2006
Location: Mission Viejo, CA
Posts: 9,299
For the ambiguous message newer versions of ffmpeg changed command line parameters, and technically the older syntax should not be used. However, the older syntax still works and pyTivo is setup to still be backwards compatible with older versions of ffmpeg. Fixing pyTivo to avoid the warning message would mean anyone with older versions of ffmpeg would be screwed.
__________________
Roamio Pro, Elite, Premiere
Cox - Motorola CableCards & TAs
Slingbox 350 via TiVo Mini & TiVo Stream for remote viewing

To view links or images in signatures your post count must be 10 or greater. You currently have 0 posts.


To view links or images in signatures your post count must be 10 or greater. You currently have 0 posts.
moyekj is offline   Reply With Quote
Old 04-15-2014, 12:30 PM   #4637
brooklynsour
Registered User
 
Join Date: Apr 2014
Posts: 16
Quote:
Originally Posted by lpwcomp View Post
So, is it working now? I don't see the error message. If not, post your pytivo.conf file, after "x"ing out any sensitive data like user id and password. BTW, it's generally a good idea to post things like this between "CODE" tags so that the forum s/w doesn't reformat it and you don't get "Smilies". Note that I added them to what I quoted.

Also, there is no real reason to have the pyTivo folder inside the python27 folder. When you installed python, it should have associated .py files with python so that the default action when you open(double click) a .py file is to run python.

sorry didnt know and i got it about the code now and no it does not work, the last lines i posted w.o the info message in beginning is the problem i think.. is it possible my cable provider (RCN) blocked this feature?

Code:
[Server]
port = 9032
togo_path = C:\Python27\pytivo-master
ffmpeg = C:\Python27\pytivo-master\Bin\ffmpeg.exe
tivodecode = C:\Python27\pytivo-master

[Movies]
type = video
path = C:\Users\Meech\Downloads\Moviez
this is my pytivo.conf file, like i mentioned yesterday it was working on saturday and i did not change any files or setting within pytivo, i also tried reinstalling and setting everything up from scratch but to no avail, thanks
brooklynsour is offline   Reply With Quote
Old 04-15-2014, 12:31 PM   #4638
brooklynsour
Registered User
 
Join Date: Apr 2014
Posts: 16
Quote:
INFO: pyTivo:192.168.0.103 [14/Apr/2014 19:54:50] "GET /TiVoConnect?Command=Query
Container&Container=%2F&DoGenres=1 HTTP/1.0" 200 -
INFO: pyTivo:192.168.0.103 [14/Apr/2014 19:55:18] "GET /TiVoConnect?Command=Query
Formats&SourceFormat=video%2Fx-tivo-mpeg HTTP/1.1" 200 -
INFO: pyTivo:192.168.0.103 [14/Apr/2014 19:56:01] "GET /TiVoConnect?Command=Query
Container&Container=Movies&Recurse=Yes&SortOrder=!CaptureDat e&ItemCount=8&Filter
=x-tivo-container%2Ftivo-videos,x-tivo-container%2Ffolder,video%2Fx-tivo-mpeg,vi
deo%2F*&SerialNum=7460001908BAEF1 HTTP/1.1" 200 -
that is where the problem is ithink.... what is the serial num on the bottom i never seen it before
brooklynsour is offline   Reply With Quote
Old 04-15-2014, 02:48 PM   #4639
lpwcomp
Registered User
 
Join Date: May 2002
Location: John's Creek, Georgia
Posts: 5,532
Quote:
Originally Posted by brooklynsour View Post
that is where the problem is ithink.... what is the serial num on the bottom i never seen it before
It's the TSN of the TiVo that is accessing the share.

What exactly happens when you select the share on the TiVo?

If I had control of your system, I'd reorganize everything and possibly start with a fresh install of pyTivo, but barring that there are a few things you might try.

After selecting the share, hit a "2" on the TiVo remote.

Install a newer version of ffmpeg.

Correct the tivodecode entry in your pytivo.conf file. As with ffmpeg, it is supposed to be the full path to the tivodecode executable.

With pyTivo running, open a browser tab or window and enter
Code:
localhost:9032
as the location. That should bring up a browser interface you can use to display and edit your pyTivo.conf file.
__________________
James L. Sutherland
"You know TiVo users. Bunch of b****y little girls" TiVoAxe

"Jessica Fletcher visits Midsomer. Carnage ensues!"
lpwcomp is offline   Reply With Quote
Old 04-15-2014, 05:00 PM   #4640
brooklynsour
Registered User
 
Join Date: Apr 2014
Posts: 16
i have a series 4 tivo box from RCN, what happens is i hit the TIVO button then MY

SHOWS, my MOVIES folder on my PC shows under Web Video Hotlist, Once i try to go in

there it says please wait but then nothing, i have in that folder shows up and says its

unavailable right now..... THIS IS THE CODE AFTER I TRY TO GO IN THE MOVIES FOLDER LIKE I STATED ABOVE ^^

Code:
INFO:pyTivo:Last modified: Mon Oct 28 22:14:42 2013
INFO:pyTivo:Python: 2.7.6
INFO:pyTivo:System: Windows-7-6.1.7601-SP1
INFO:pyTivo.beacon:Scanning for TiVos...
INFO:pyTivo.beacon:DVR Meech
INFO:pyTivo.beacon:Announcing shares...
INFO:pyTivo.beacon:Registering: Movies
INFO:pyTivo:pyTivo is ready.
INFO:pyTivo:192.168.0.103 [15/Apr/2014 17:04:45] "GET /TiVoConnect?Command=Query
Container&Container=%2F&DoGenres=1 HTTP/1.0" 200 -
INFO:pyTivo:192.168.0.103 [15/Apr/2014 17:04:45] "GET /TiVoConnect?Command=Query
Container&Container=Movies&ItemCount=0&SerialNum=7460001908BAEF1 HTTP/1.1" 200 -
INFO:pyTivo:192.168.0.103 [15/Apr/2014 17:04:49] "GET /TiVoConnect?Command=Query
Formats&SourceFormat=video%2Fx-tivo-mpeg HTTP/1.1" 200 -
INFO:pyTivo:192.168.0.103 [15/Apr/2014 17:05:31] "GET /TiVoConnect?Command=Query
Container&Container=Movies&Recurse=Yes&SortOrder=!CaptureDate&ItemCount=8&Filter
=x-tivo-container%2Ftivo-videos,x-tivo-container%2Ffolder,video%2Fx-tivo-mpeg,vi
deo%2F*&SerialNum=7460001908BAEF1 HTTP/1.1" 200 -

brooklynsour is offline   Reply With Quote
Old 04-15-2014, 05:20 PM   #4641
moyekj
Registered User
 
Join Date: Jan 2006
Location: Mission Viejo, CA
Posts: 9,299
Mispelled Movies?
Quote:
path = C:\Users\Meech\Downloads\Moviez

__________________
Roamio Pro, Elite, Premiere
Cox - Motorola CableCards & TAs
Slingbox 350 via TiVo Mini & TiVo Stream for remote viewing

To view links or images in signatures your post count must be 10 or greater. You currently have 0 posts.


To view links or images in signatures your post count must be 10 or greater. You currently have 0 posts.
moyekj is offline   Reply With Quote
Old 04-15-2014, 05:26 PM   #4642
lpwcomp
Registered User
 
Join Date: May 2002
Location: John's Creek, Georgia
Posts: 5,532
Quote:
Originally Posted by brooklynsour View Post
i have a series 4 tivo box from RCN, what happens is i hit the TIVO button then MY

SHOWS, my MOVIES folder on my PC shows under Web Video Hotlist, Once i try to go in

there it says please wait but then nothing, i have in that folder shows up and says its

unavailable right now..... THIS IS THE CODE AFTER I TRY TO GO IN THE MOVIES FOLDER LIKE I STATED ABOVE ^^

Code:
INFO:pyTivo:Last modified: Mon Oct 28 22:14:42 2013
INFO:pyTivo:Python: 2.7.6
INFO:pyTivo:System: Windows-7-6.1.7601-SP1
INFO:pyTivo.beacon:Scanning for TiVos...
INFO:pyTivo.beacon:DVR Meech
INFO:pyTivo.beacon:Announcing shares...
INFO:pyTivo.beacon:Registering: Movies
INFO:pyTivo:pyTivo is ready.
INFO:pyTivo:192.168.0.103 [15/Apr/2014 17:04:45] "GET /TiVoConnect?Command=Query
Container&Container=%2F&DoGenres=1 HTTP/1.0" 200 -
INFO:pyTivo:192.168.0.103 [15/Apr/2014 17:04:45] "GET /TiVoConnect?Command=Query
Container&Container=Movies&ItemCount=0&SerialNum=7460001908BAEF1 HTTP/1.1" 200 -
INFO:pyTivo:192.168.0.103 [15/Apr/2014 17:04:49] "GET /TiVoConnect?Command=Query
Formats&SourceFormat=video%2Fx-tivo-mpeg HTTP/1.1" 200 -
INFO:pyTivo:192.168.0.103 [15/Apr/2014 17:05:31] "GET /TiVoConnect?Command=Query
Container&Container=Movies&Recurse=Yes&SortOrder=!CaptureDate&ItemCount=8&Filter
=x-tivo-container%2Ftivo-videos,x-tivo-container%2Ffolder,video%2Fx-tivo-mpeg,vi
deo%2F*&SerialNum=7460001908BAEF1 HTTP/1.1" 200 -
I understood that, and all of those messages are normal.
Here's an example from one of mine:

Code:
INFO:pyTivo:Last modified: Sat Jan 04 08:57:28 2014
INFO:pyTivo:Python: 2.7.5
INFO:pyTivo:System: Windows-8-6.2.9200
INFO:pyTivo.beacon:Scanning for TiVos...
INFO:pyTivo.beacon:JLS HD
INFO:pyTivo.beacon:Sandies Room
INFO:pyTivo.beacon:BR Premiere
INFO:pyTivo.beacon:JLS Roamio
INFO:pyTivo.beacon:Announcing shares...
INFO:pyTivo.beacon:Registering: Nimitz Downloads
INFO:pyTivo.beacon:Registering: Nimitz Offload
INFO:pyTivo:pyTivo is ready.
INFO:pyTivo:192.168.1.104 [15/Apr/2014 17:14:38] "GET /TiVoConnect?Command=Query
Container&Container=%2F HTTP/1.0" 200 -
INFO:pyTivo:192.168.1.103 [15/Apr/2014 17:14:38] "GET /TiVoConnect?Command=Query
Container&Container=%2F HTTP/1.0" 200 -
INFO:pyTivo:192.168.1.105 [15/Apr/2014 17:14:38] "GET /TiVoConnect?Command=Query
Container&Container=%2F&DoGenres=1 HTTP/1.0" 200 -
INFO:pyTivo:192.168.1.107 [15/Apr/2014 17:14:38] "GET /TiVoConnect?Command=Query
Container&Container=%2F&DoGenres=1 HTTP/1.0" 200 -
INFO:pyTivo:192.168.1.107 [15/Apr/2014 17:14:38] "GET /TiVoConnect?Command=Query
Container&Container=%2F&DoGenres=1 HTTP/1.0" 200 -
INFO:pyTivo:192.168.1.105 [15/Apr/2014 17:14:38] "GET /TiVoConnect?Command=Query
Container&Container=Nimitz%20Downloads&ItemCount=0&SerialNum=74600119055800F HTT
P/1.1" 200 -
INFO:pyTivo:192.168.1.107 [15/Apr/2014 17:14:38] "GET /TiVoConnect?Command=Query
Container&Container=Nimitz%20Offload&ItemCount=0&SerialNum=846000190304FA2 HTTP/
1.1" 200 -
INFO:pyTivo:192.168.1.107 [15/Apr/2014 17:14:38] "GET /TiVoConnect?Command=Query
Container&Container=Nimitz%20Downloads&ItemCount=0&SerialNum=846000190304FA2 HTT
P/1.1" 200 -
INFO:pyTivo:192.168.1.105 [15/Apr/2014 17:14:38] "GET /TiVoConnect?Command=Query
Container&Container=Nimitz%20Offload&ItemCount=0&SerialNum=74600119055800F HTTP/
1.1" 200 -
INFO:pyTivo:192.168.1.105 [15/Apr/2014 17:14:38] "GET /TiVoConnect?Command=Query
Container&Container=%2F&DoGenres=1 HTTP/1.0" 200 -
INFO:pyTivo:192.168.1.107 [15/Apr/2014 17:14:38] "GET /TiVoConnect?Command=Query
Container&Container=%2F&DoGenres=1 HTTP/1.0" 200 -
INFO:pyTivo:192.168.1.107 [15/Apr/2014 17:15:20] "GET /TiVoConnect?Command=Query
Formats&SourceFormat=video%2Fx-tivo-mpeg HTTP/1.1" 200 -
INFO:pyTivo:192.168.1.107 [15/Apr/2014 17:15:21] "GET /TiVoConnect?Command=Query
Container&Container=Nimitz%20Downloads&SortOrder=Title&ItemCount=8&Filter=x-tivo
-container%2Ftivo-videos,x-tivo-container%2Ffolder,video%2Fx-tivo-mpeg,video%2F*
&SerialNum=846000190304FA2 HTTP/1.1" 200 -
INFO:pyTivo:192.168.1.107 [15/Apr/2014 17:15:21] "GET /TiVoConnect?Command=Query
Formats&SourceFormat=video%2Fx-tivo-mpeg-ts HTTP/1.1" 200 -
INFO:pyTivo:192.168.1.107 [15/Apr/2014 17:15:21] "GET /TiVoConnect?Command=Query
Formats&SourceFormat=video%2Fx-tivo-mpeg-ts HTTP/1.1" 200 -
Try moving the Moviez folder to the root of your C drive so that the path is C:\Moviez. Windows may be preventing pyTivo from accessing it in its current location. Of course, you'll also need to update the pyTivo.conf file so the share has the new path and stop and restart pyTivo.
__________________
James L. Sutherland
"You know TiVo users. Bunch of b****y little girls" TiVoAxe

"Jessica Fletcher visits Midsomer. Carnage ensues!"
lpwcomp is offline   Reply With Quote
Old 04-17-2014, 01:05 PM   #4643
brooklynsour
Registered User
 
Join Date: Apr 2014
Posts: 16
no it was spelled right i wrote it purposely with a Z, guys iidk what it was exactly but things worked today w/out changing anything, THE ONE THING THAT IS DIFFERENT is the last movie i placed in that folder didnt finish downloading but i thought it had or forgot it hadn't, i deleted that file/movie yesterday and when i tried today everything worked fine, so is it possible the unfinished movie caused the dilemma? and thank you very much guys who responded and offered help appreciate your time efforts

EDIT
Code:
frame=51661 fps=326 q=2.0 size=  564444kB time=00:35:55.35 bitrate=2145.3kbits/s
frame=51782 fps=325 q=2.0 size=  566408kB time=00:36:00.37 bitrate=2147.8kbits/s
frame=51869 fps=325 q=1.6 size=  568350kB time=00:36:04.02 bitrate=2151.5kbits/s
frame=106230 fps=335 q=2.0 size= 1108512kB time=01:13:51.35 bitrate=2049.2kbits/
frame=106419 fps=335 q=2.0 size= 1110828kB time=01:13:59.22 bitrate=2049.9kbits/
frame=106589 fps=335 q=2.0 size= 1112642kB time=01:14:06.33 bitrate=2050.0kbits/

[mp3 @ 00000000029c05e0] incomplete frame

Error while decoding stream #0:1: Invalid data found when processing input
frame=106700 fps=336 q=2.0 Lsize= 1113308kB time=01:14:10.27 bitrate=2049.4kbits
/s
video:854704kB audio:243374kB subtitle:0kB other streams:0kB global headers:0kB
muxing overhead: 1.386911%
INFO:pyTivo.video.video:[17/Apr/2014 13:14:44] Done sending "C:\Moviez\Son of Ba
tman [2014].avi" to DVR Meech, 1140036608 bytes, 27.34 Mb/s
it gave me an ERROR message but everything streamed whole and complete and surely didnt take too long

Last edited by brooklynsour : 04-17-2014 at 01:45 PM.
brooklynsour is offline   Reply With Quote
Old 04-17-2014, 02:51 PM   #4644
lpwcomp
Registered User
 
Join Date: May 2002
Location: John's Creek, Georgia
Posts: 5,532
Quote:
Originally Posted by brooklynsour View Post
no it was spelled right i wrote it purposely with a Z, guys iidk what it was exactly but things worked today w/out changing anything, THE ONE THING THAT IS DIFFERENT is the last movie i placed in that folder didnt finish downloading but i thought it had or forgot it hadn't, i deleted that file/movie yesterday and when i tried today everything worked fine, so is it possible the unfinished movie caused the dilemma?
Yes, it is possible.
__________________
James L. Sutherland
"You know TiVo users. Bunch of b****y little girls" TiVoAxe

"Jessica Fletcher visits Midsomer. Carnage ensues!"
lpwcomp is offline   Reply With Quote
Old 05-05-2014, 11:07 AM   #4645
BiloxiGeek
Reality Challenged
 
BiloxiGeek's Avatar
 
Join Date: Nov 2001
Location: Gulfport, Ms. USA
Posts: 451
Just upgraded the drive in a Roamio Plus from the factory 1TB to a 3TB drive. The upgrade went pretty smoothly but now I can't see any of my pyTivo video shares. I've restarted the TiVo, restarted pyTivo and still no shares. Music and photo share are still working. The log shows that pyTivo sees the Roamio's beacon just like it always has. Nothing changed except I swapped the disk out, had to re-pair the cable card with CableOne and go through guided setup again.

I checked on tivo.com and transfer's are still enabled. Is there a setting somewhere on the Roamio that would prevent pyTivo shares from showing in NPL? The Roamio does see the other TiVo's on the network. I can push from the pyTivo web interface to the Roamio. Just can't see the shares and pull from pyTivo.
__________________
| Roamio Plus
| Premiere Elite
| Two Tivo HD's
| The early bird may get the worm,
| but it's the second mouse that gets the cheese...
BiloxiGeek is online now   Reply With Quote
Old 05-05-2014, 10:01 PM   #4646
riise317
Registered User
 
Join Date: Apr 2014
Posts: 15
quick question, fairly new kmttg/pytivo user here...

i am able to download any recording from my tivo using metadata and decrypt options only in kmttg. once the files are on my computer i use pyTivo to publish and start the transfer from my NPL. the transfer completes normally and i can watch the show but the video quality seems to be much lower. i get black bars top and bottom as well as it appears fuzzy and non-hd for lack of a better term.

is there a setting i am missing? i thought that the decrypt option would not change video quality?

i posted this in the kmttg thread but was told that it may be a pytivo issue?

also a side note, i have not been able to transfer a .tivo file back to my tivo, it recognizes the file but never actually initiates the transfer.

anyway, any help would be appreciated...thanks
riise317 is offline   Reply With Quote
Old 05-05-2014, 10:07 PM   #4647
moyekj
Registered User
 
Join Date: Jan 2006
Location: Mission Viejo, CA
Posts: 9,299
wmcbrine already posted in kmttg thread that most likely the issue is you are using an ancient pyTivo installation. Follow the Wiki instructions to get a new installation in place:
http://pytivo.sourceforge.net/wiki/i...indows_Install
__________________
Roamio Pro, Elite, Premiere
Cox - Motorola CableCards & TAs
Slingbox 350 via TiVo Mini & TiVo Stream for remote viewing

To view links or images in signatures your post count must be 10 or greater. You currently have 0 posts.


To view links or images in signatures your post count must be 10 or greater. You currently have 0 posts.
moyekj is offline   Reply With Quote
Old 05-06-2014, 01:58 PM   #4648
riise317
Registered User
 
Join Date: Apr 2014
Posts: 15
Quote:
Originally Posted by moyekj View Post
wmcbrine already posted in kmttg thread that most likely the issue is you are using an ancient pyTivo installation. Follow the Wiki instructions to get a new installation in place:
http://pytivo.sourceforge.net/wiki/i...indows_Install
sorry i forgot to mention, i only recently installed the software, maybe 2 weeks ago? i was pretty sure it was the most current version but i'll check when i get home. also i'm using OSX so i'd assume i should be getting the current release from here? http://pytivo.sourceforge.net/wiki/i...p/OS_X_Install
riise317 is offline   Reply With Quote
Old 05-06-2014, 02:03 PM   #4649
moyekj
Registered User
 
Join Date: Jan 2006
Location: Mission Viejo, CA
Posts: 9,299
That's correct. However, make sure you installed pyTivo, not pyTivoX which is ancient/outdated.
__________________
Roamio Pro, Elite, Premiere
Cox - Motorola CableCards & TAs
Slingbox 350 via TiVo Mini & TiVo Stream for remote viewing

To view links or images in signatures your post count must be 10 or greater. You currently have 0 posts.


To view links or images in signatures your post count must be 10 or greater. You currently have 0 posts.
moyekj is offline   Reply With Quote
Old 05-06-2014, 02:13 PM   #4650
riise317
Registered User
 
Join Date: Apr 2014
Posts: 15
Quote:
Originally Posted by moyekj View Post
That's correct. However, make sure you installed pyTivo, not pyTivoX which is ancient/outdated.
wow...there's my problem. i have pyTivoX installed

since pyTivoX says that it comes with pyTivo would there be any other items to delete or just the pyTivoX app itself?
riise317 is offline   Reply With Quote
Reply
Forum Jump




Thread Tools


Posting Rules
You may not post new threads
You may not post replies
You may not post attachments
You may not edit your posts

vB code is On
Smilies are On
[IMG] code is On
HTML code is Off

Advertisements

TiVo Community
Powered by vBulletin® Version 3.6.8
Copyright ©2000 - 2014, Jelsoft Enterprises Ltd.
vBulletin Skins by: Relivo Media

(C) 2013 Magenium Solutions - All Rights Reserved. No information may be posted elsewhere without written permission.
TiVoŽ is a registered trademark of TiVo Inc. This site is not owned or operated by TiVo Inc.
All times are GMT -5. The time now is 08:25 AM.
OUR NETWORK: MyOpenRouter | TechLore | SansaCommunity | RoboCommunity | MediaSmart Home | Explore3DTV | Dijit Community | DVR Playground |