1. This site uses cookies. By continuing to use this site, you are agreeing to our use of cookies. Learn More.

pyTivo - Transcoding server

Discussion in 'TiVo Home Media Features & TiVoToGo' started by armooo, Nov 25, 2006.

  1. Soapm

    Soapm Active Member

    1,564
    0
    May 9, 2007
    So close,...
    no difference, this is the script I'm using

    http://pytivo.sourceforge.net/wiki/index.php/Init.d_Script

    Perhaps you don't mind posting your script. Maybe there's something in this one that's causing this. The author did post a warning at the top but it otherwise works great...
     
  2. lrhorer

    lrhorer New Member

    6,922
    0
    Aug 31, 2003
    San...
    It (they, actually) is already posted here
     
  3. Soapm

    Soapm Active Member

    1,564
    0
    May 9, 2007
    So close,...
    There are two scripts there, what is the first one for?
     
  4. lrhorer

    lrhorer New Member

    6,922
    0
    Aug 31, 2003
    San...
    Let's move this to the other thread.
     
  5. lew

    lew Active Member

    3,952
    3
    Mar 12, 2002
    also found I couldn't log into tivo website.

    Will only work if my username (email address) is in CAPS. I don't remember if I originally used CAPS but it was working fine in lower case for years. Changed my pyTivo config file and problem is solved.
     
  6. Oct 1, 2012 #3646 of 5682
    mattack

    mattack Active Member

    20,734
    4
    Apr 9, 2001
    sunnyvale
    I realize this is just me not RTFMing, but I was looking around, wondering why my Tivo didn't see pyTivo (it saw the server, just wouldn't show recordings in it when I entered -- I think it was me changing something on my router).. I then realized pyTivo would STREAM too.

    While this isn't quite as good in some ways (you don't get close captions), it is good in that it will stream (and you don't risk losing programs on the Tivo since the Tivo seems to clear out WAY more space than needed)..

    (Sometime later, the shows showed back up in the entry at the bottom of now playing too.)

    Also, with the streaming option, I seem to remember that I saw the episode # info more prominently.
     
  7. Oct 2, 2012 #3647 of 5682
    wmcbrine

    wmcbrine Ziphead

    10,364
    22
    Aug 2, 2003
    pyTivo doesn't stream. Are you maybe looking at the Streambaby side of pyTivoX? Yoav bundled pyTivo and Streambaby together with his GUI.
     
  8. Oct 2, 2012 #3648 of 5682
    mattack

    mattack Active Member

    20,734
    4
    Apr 9, 2001
    sunnyvale
    Hmm, I thought the app was just called pyTivo.. but yeah, I just mean the GUI app that I launch on Mac OS X.
     
  9. Oct 2, 2012 #3649 of 5682
    lpwcomp

    lpwcomp Active Member

    8,075
    2
    May 6, 2002
    John's...
    pyTivo doesn't show up as a server. The shares show up in the NPL. You need to have at least one share defined in pyTivo.CONF for anything to show up on the TiVo.

    Similarly, you must have at least 1 dir defined in streambaby.ini

    All this assumes that the apps work mostly the same on a Mac as they do on a PC.
     
  10. larrs

    larrs Movie Fan-Addict

    1,011
    0
    May 2, 2005
    DFW
    Just wondering if there is some method of eliminating failed pushes from the console. Every once in a while (I'd say 20% of the time), pushes will fail for me. I will initiate the push from either the web console or using vidmgr and will wait and the transfer never begins. Usually, I can just do it again and it works the second time, but it is frustrating for the uneducated masses in my family unit. This drives them back to the pull menu from the Tivo and causes them to gripe about the speed as I am slowly converting to h264 from mpeg2.

    Is this just the nature of the beast, or is there some setting that causes it to time out that I can change?
     
  11. wmcbrine

    wmcbrine Ziphead

    10,364
    22
    Aug 2, 2003
    Once you make the push request, it's out of our hands. It goes to the "mind" server at tivo.com, which is not 100% reliable. Although a 20% failure rate is well outside my experience.
     
  12. larrs

    larrs Movie Fan-Addict

    1,011
    0
    May 2, 2005
    DFW
    I guess I expected that, and I may be high with the 20% number. However, the laws of the household are still true: "The one with the least amount of technical knowledge will always be the one with the most technical issues"

    Case in point is my wife- her fail rate is more like 70% to hear her tell it.:)
     
  13. lrhorer

    lrhorer New Member

    6,922
    0
    Aug 31, 2003
    San...
    Yeah, I would also suggest that to be the case, unless you have had extraordinarily bad luck. I push a lot of content, and I would put the number closer to 2% than 20%. Even 10% sounds quite high.

    Yeah, that one has always puzzled me a little. I can chalk up some of it to familiarity breeding ease and accuracy of use, but I almost swear there are some people whose computer hates them. Perhaps it's mutual contempt. :)

    Uh, yeah. When was the last time she went fishing, and how big was the one that got away?

    I had a stepdaugher that wailed, "You never let me do anything!", when we told her going to the movies 14 days in a row was too many. ;)
     
  14. lrhorer

    lrhorer New Member

    6,922
    0
    Aug 31, 2003
    San...
    Mine, too. Most of the failures I have experienced were when the servers were down, but that results in an immediate error.
     
  15. lrhorer

    lrhorer New Member

    6,922
    0
    Aug 31, 2003
    San...
    Oh, now this is odd. Suddenly some of my BLuRay rips refuse to transfer. It seems to be random which ones will and which ones won't. I don't get any error, and the system says the files are queued for push, but they never go. It may be a coincidence, but it is suspicious this may have happened at the same time the Premiere stopped responding to RPC calls. Does anyone glean anything from the following log file? Note An Affair to remember, which is not a BluRay rip, and The Patriot, which is, transfer fine, but Batman Begins and Willy Wonka and the Chocolate Factory do not.

    Code:
    INFO:pyTivo.config:Shares security in use -- zeroconf disabled
    INFO:pyTivo:pyTivo is ready.
    INFO:pyTivo:192.168.1.103 [13/Oct/2012 01:12:55] "GET /TiVoConnect?Command=QueryContainer&Container=%2F HTTP/1.0" 200 -
    INFO:pyTivo:192.168.1.101 [13/Oct/2012 01:12:55] "GET /TiVoConnect?Command=QueryContainer&Container=%2F HTTP/1.0" 200 -
    INFO:pyTivo:192.168.1.105 [13/Oct/2012 01:12:55] "GET /TiVoConnect?Command=QueryContainer&Container=%2F&DoGenres=1 HTTP/1.0" 200 -
    DEBUG:pyTivo.video.transcode:starting ffmpeg, will wait 10 seconds for it to complete
    DEBUG:pyTivo.video.transcode:ffmpeg output=FFmpeg version SVN-r25838, Copyright (c) 2000-2010 the FFmpeg developers
      built on Sep 20 2011 17:00:01 with gcc 4.4.5
      configuration: --enable-libdc1394 --prefix=/usr --extra-cflags='-Wall -g ' --cc='ccache cc' --enable-shared --enable-libmp3lame --enable-gpl --enable-libvorbis --enable-pthreads --enable-libfaac --enable-libxvid --enable-postproc --enable-x11grab --enable-libgsm --enable-libtheora --enable-libopencore-amrnb --enable-libopencore-amrwb --enable-libx264 --enable-libspeex --enable-nonfree --disable-stripping --enable-avfilter --enable-libdirac --disable-decoder=libdirac --enable-libschroedinger --disable-encoder=libschroedinger --enable-version3 --enable-libopenjpeg --enable-libvpx --enable-librtmp --extra-libs=-lgcrypt --disable-altivec --disable-armv5te --disable-armv6 --disable-vis
      libavutil     50.33. 0 / 50.43. 0
      libavcore      0.14. 0 /  0.14. 0
      libavcodec    52.97. 2 / 52.123. 0
      libavformat   52.87. 1 / 52.111. 0
      libavdevice   52. 2. 2 / 52. 2. 2
      libavfilter    1.65. 0 /  1.65. 0
      libswscale     0.12. 0 /  0.14. 1
      libpostproc   51. 2. 0 / 51. 2. 0
    Input #0, mov,mp4,m4a,3gp,3g2,mj2, from '/RAID/Recordings/Patriot, The (Recorded Mon Jul 16, 2012, BluRay).mp4':
      Metadata:
        major_brand     : mp42
        minor_version   : 0
        compatible_brands: mp42isomavc1
        creation_time   : 2012-08-27 15:44:33
        encoder         : HandBrake 0.9.6 2012022800
      Duration: 02:55:06.52, start: 0.000000, bitrate: 28272 kb/s
        Chapter #0.0: start 0.000000, end 795.828367
        Metadata:
          title           : Chapter 1
        Chapter #0.1: start 795.828367, end 1597.028767
        Metadata:
          title           : Chapter 2
        Chapter #0.2: start 1597.028767, end 2098.429667
        Metadata:
          title           : Chapter 3
        Chapter #0.3: start 2098.429667, end 2495.092600
        Metadata:
          title           : Chapter 4
        Chapter #0.4: start 2495.092600, end 3385.782400
        Metadata:
          title           : Chapter 5
        Chapter #0.5: start 3385.782400, end 3973.302667
        Metadata:
          title           : Chapter 6
        Chapter #0.6: start 3973.302667, end 4824.386233
        Metadata:
          title           : Chapter 7
        Chapter #0.7: start 4824.386233, end 5298.159533
        Metadata:
          title           : Chapter 8
        Chapter #0.8: start 5298.159533, end 5799.527067
        Metadata:
          title           : Chapter 9
        Chapter #0.9: start 5799.527067, end 6401.828767
        Metadata:
          title           : Chapter 10
        Chapter #0.10: start 6401.828767, end 7212.071533
        Metadata:
          title           : Chapter 11
        Chapter #0.11: start 7212.071533, end 7629.655367
        Metadata:
          title           : Chapter 12
        Chapter #0.12: start 7629.655367, end 8048.774067
        Metadata:
          title           : Chapter 13
        Chapter #0.13: start 8048.774067, end 9086.277200
        Metadata:
          title           : Chapter 14
        Chapter #0.14: start 9086.277200, end 9536.026500
        Metadata:
          title           : Chapter 15
        Chapter #0.15: start 9536.026500, end 10506.462633
        Metadata:
          title           : Chapter 16
        Stream #0.0(und): Video: h264 (Constrained Baseline), yuv420p, 1920x1080, 27886 kb/s, 29.97 fps, 29.97 tbr, 90k tbn, 59.94 tbc
        Metadata:
          creation_time   : 2012-08-27 15:44:33
        Stream #0.1(eng): Audio: ac3, 48000 Hz, 6 channels, s16, 384 kb/s
        Metadata:
          creation_time   : 2012-08-27 15:44:33
        Stream #0.2(und): Subtitle: text / 0x74786574
        Metadata:
          creation_time   : 2012-08-27 15:44:33
    At least one output file must be specified
    
    DEBUG:pyTivo.video.transcode:aFreq=48000; vFps=29.97; container=mov; kbps=28272; mapAudio=[('0.1', '(eng)')]; vHeight=1080; vCodec=h264; Supported=True; aKbps=384; par=None; millisecs=10506520; par2=None; par1=None; mapVideo=0.0; vWidth=1920; dar1=None; aCodec=ac3
    DEBUG:pyTivo.video.transcode:TRANSCODE=NO, all compatible, /RAID/Recordings/Patriot, The (Recorded Mon Jul 16, 2012, BluRay).mp4
    INFO:pyTivo:192.168.1.105 [13/Oct/2012 01:13:03] "GET /RAID%20Server/Patriot,%20The%20(Recorded%20Mon%20Jul%2016,%202012,%20BluRay).mp4?Format=video%2Fmp4 HTTP/1.1" 206 -
    INFO:pyTivo.video.video:[13/Oct/2012 01:13:03] Start sending "/RAID/Recordings/Patriot, The (Recorded Mon Jul 16, 2012, BluRay).mp4" to Premier Theater
    DEBUG:pyTivo.video.video:"/RAID/Recordings/Patriot, The (Recorded Mon Jul 16, 2012, BluRay).mp4" is tivo compatible
    DEBUG:pyTivo.video.qt-faststart:Getting index of top level atoms...
    DEBUG:pyTivo.video.qt-faststart:ftyp: 28
    DEBUG:pyTivo.video.qt-faststart:free: 132
    DEBUG:pyTivo.video.qt-faststart:mdat: 37127601186
    DEBUG:pyTivo.video.qt-faststart:moov: 2746541
    DEBUG:pyTivo.video.qt-faststart:free: 132
    INFO:pyTivo.video.qt-faststart:Removing free atom at 28 (132 bytes)
    INFO:pyTivo.video.qt-faststart:Patching co64 with 78720 entries
    INFO:pyTivo.video.qt-faststart:Patching co64 with 65666 entries
    INFO:pyTivo.video.qt-faststart:Patching co64 with 16 entries
    INFO:pyTivo.video.qt-faststart:Writing output...
    INFO:pyTivo.video.video:[13/Oct/2012 01:28:52] Done sending "/RAID/Recordings/Patriot, The (Recorded Mon Jul 16, 2012, BluRay).mp4" to Premier Theater, 9926456850 bytes, 79.81 Mb/s
    INFO:pyTivo:192.168.1.101 [13/Oct/2012 06:29:35] "GET /TiVoConnect?Command=QueryContainer&Container=%2F HTTP/1.0" 200 -
    INFO:pyTivo:192.168.1.105 [13/Oct/2012 06:29:35] "GET /TiVoConnect?Command=QueryContainer&Container=%2F&DoGenres=1 HTTP/1.0" 200 -
    INFO:pyTivo:192.168.1.103 [13/Oct/2012 06:29:35] "GET /TiVoConnect?Command=QueryContainer&Container=%2F HTTP/1.0" 200 -
    INFO:pyTivo:192.168.1.102 [13/Oct/2012 06:30:41] "GET /TiVoConnect?Command=QueryContainer&Container=%2F HTTP/1.0" 200 -
    INFO:pyTivo:192.168.1.102 [13/Oct/2012 06:42:44] "GET /TiVoConnect?Command=QueryContainer&Container=%2F HTTP/1.0" 200 -
    INFO:pyTivo:192.168.1.102 [13/Oct/2012 06:44:48] "GET /TiVoConnect?Command=QueryContainer&Container=%2F HTTP/1.0" 200 -
    INFO:pyTivo:192.168.1.102 [13/Oct/2012 06:56:51] "GET /TiVoConnect?Command=QueryContainer&Container=%2F HTTP/1.0" 200 -
    INFO:pyTivo:192.168.1.102 [13/Oct/2012 06:59:42] "GET /TiVoConnect?Command=QueryContainer&Container=%2F HTTP/1.0" 200 -
    INFO:pyTivo:192.168.1.102 [13/Oct/2012 07:00:39] "GET /TiVoConnect?Command=QueryContainer&Container=%2F HTTP/1.0" 200 -
    INFO:pyTivo:192.168.1.102 [13/Oct/2012 07:07:37] "GET /TiVoConnect?Command=QueryContainer&Container=%2F HTTP/1.0" 200 -
    INFO:pyTivo:192.168.1.102 [13/Oct/2012 07:08:35] "GET /TiVoConnect?Command=QueryContainer&Container=%2F HTTP/1.0" 200 -
    INFO:pyTivo:192.168.1.105 [13/Oct/2012 11:01:03] "GET /TiVoConnect?Command=QueryContainer&Container=%2F&DoGenres=1 HTTP/1.0" 200 -
    INFO:pyTivo:192.168.1.105 [13/Oct/2012 11:01:22] "GET /TiVoConnect?Command=QueryContainer&Container=%2F&DoGenres=1 HTTP/1.0" 200 -
    INFO:pyTivo.video.video:[13/Oct/2012 11:02:09] Queued "/RAID/Recordings/Batman/Batman 05 Begins (Recorded Sun Jul 22, 2012, BluRay).mp4" for Push to Premier Theater
    INFO:pyTivo:192.168.1.50 [13/Oct/2012 11:02:09] "POST /TivoConnect HTTP/1.0" 200 -
    DEBUG:pyTivo.video.transcode:starting ffmpeg, will wait 10 seconds for it to complete
    DEBUG:pyTivo.video.transcode:ffmpeg output=FFmpeg version SVN-r25838, Copyright (c) 2000-2010 the FFmpeg developers
      built on Sep 20 2011 17:00:01 with gcc 4.4.5
      configuration: --enable-libdc1394 --prefix=/usr --extra-cflags='-Wall -g ' --cc='ccache cc' --enable-shared --enable-libmp3lame --enable-gpl --enable-libvorbis --enable-pthreads --enable-libfaac --enable-libxvid --enable-postproc --enable-x11grab --enable-libgsm --enable-libtheora --enable-libopencore-amrnb --enable-libopencore-amrwb --enable-libx264 --enable-libspeex --enable-nonfree --disable-stripping --enable-avfilter --enable-libdirac --disable-decoder=libdirac --enable-libschroedinger --disable-encoder=libschroedinger --enable-version3 --enable-libopenjpeg --enable-libvpx --enable-librtmp --extra-libs=-lgcrypt --disable-altivec --disable-armv5te --disable-armv6 --disable-vis
      libavutil     50.33. 0 / 50.43. 0
      libavcore      0.14. 0 /  0.14. 0
      libavcodec    52.97. 2 / 52.123. 0
      libavformat   52.87. 1 / 52.111. 0
      libavdevice   52. 2. 2 / 52. 2. 2
      libavfilter    1.65. 0 /  1.65. 0
      libswscale     0.12. 0 /  0.14. 1
      libpostproc   51. 2. 0 / 51. 2. 0
    Input #0, mov,mp4,m4a,3gp,3g2,mj2, from '/RAID/Recordings/Batman/Batman 05 Begins (Recorded Sun Jul 22, 2012, BluRay).mp4':
      Metadata:
        major_brand     : mp42
        minor_version   : 0
        compatible_brands: mp42isomavc1
        creation_time   : 2012-09-14 05:46:35
        encoder         : HandBrake 0.9.6 2012022800
      Duration: 02:20:03.00, start: 0.000000, bitrate: 11205 kb/s
        Chapter #0.0: start 0.000000, end 219.219000
        Metadata:
          title           : Chapter 1
        Chapter #0.1: start 219.219000, end 451.159033
        Metadata:
          title           : Chapter 2
        Chapter #0.2: start 451.159033, end 694.026667
        Metadata:
          title           : Chapter 3
        Chapter #0.3: start 694.026667, end 975.683033
        Metadata:
          title           : Chapter 4
        Chapter #0.4: start 975.683033, end 1184.349833
        Metadata:
          title           : Chapter 5
        Chapter #0.5: start 1184.349833, end 1459.332867
        Metadata:
          title           : Chapter 6
        Chapter #0.6: start 1459.332867, end 1704.703000
        Metadata:
          title           : Chapter 7
        Chapter #0.7: start 1704.703000, end 1885.383500
        Metadata:
          title           : Chapter 8
        Chapter #0.8: start 1885.383500, end 2153.860033
        Metadata:
          title           : Chapter 9
        Chapter #0.9: start 2153.860033, end 2304.635667
        Metadata:
          title           : Chapter 10
        Chapter #0.10: start 2304.635667, end 2474.638833
        Metadata:
          title           : Chapter 11
        Chapter #0.11: start 2474.638833, end 2588.294033
        Metadata:
          title           : Chapter 12
        Chapter #0.12: start 2588.294033, end 2817.981833
        Metadata:
          title           : Chapter 13
        Chapter #0.13: start 2817.981833, end 2983.981000
        Metadata:
          title           : Chapter 14
        Chapter #0.14: start 2983.981000, end 3206.203000
        Metadata:
          title           : Chapter 15
        Chapter #0.15: start 3206.203000, end 3355.060033
        Metadata:
          title           : Chapter 16
        Chapter #0.16: start 3355.060033, end 3482.187033
        Metadata:
          title           : Chapter 17
        Chapter #0.17: start 3482.187033, end 3811.808000
        Metadata:
          title           : Chapter 18
        Chapter #0.18: start 3811.808000, end 3953.115833
        Metadata:
          title           : Chapter 19
        Chapter #0.19: start 3953.115833, end 4118.823033
        Metadata:
          title           : Chapter 20
        Chapter #0.20: start 4118.823033, end 4285.781500
        Metadata:
          title           : Chapter 21
        Chapter #0.21: start 4285.781500, end 4399.561833
        Metadata:
          title           : Chapter 22
        Chapter #0.22: start 4399.561833, end 4576.280033
        Metadata:
          title           : Chapter 23
        Chapter #0.23: start 4576.280033, end 4790.285500
        Metadata:
          title           : Chapter 24
        Chapter #0.24: start 4790.285500, end 5034.362667
        Metadata:
          title           : Chapter 25
        Chapter #0.25: start 5034.362667, end 5342.670667
        Metadata:
          title           : Chapter 26
        Chapter #0.26: start 5342.670667, end 5556.717833
        Metadata:
          title           : Chapter 27
        Chapter #0.27: start 5556.717833, end 5869.029833
        Metadata:
          title           : Chapter 28
        Chapter #0.28: start 5869.029833, end 6033.736033
        Metadata:
          title           : Chapter 29
        Chapter #0.29: start 6033.736033, end 6309.011033
        Metadata:
          title           : Chapter 30
        Chapter #0.30: start 6309.011033, end 6572.065500
        Metadata:
          title           : Chapter 31
        Chapter #0.31: start 6572.065500, end 6689.182500
        Metadata:
          title           : Chapter 32
        Chapter #0.32: start 6689.182500, end 6889.048833
        Metadata:
          title           : Chapter 33
        Chapter #0.33: start 6889.048833, end 7091.084000
        Metadata:
          title           : Chapter 34
        Chapter #0.34: start 7091.084000, end 7315.016033
        Metadata:
          title           : Chapter 35
        Chapter #0.35: start 7315.016033, end 7501.202033
        Metadata:
          title           : Chapter 36
        Chapter #0.36: start 7501.202033, end 7566.892667
        Metadata:
          title           : Chapter 37
        Chapter #0.37: start 7566.892667, end 7758.459033
        Metadata:
          title           : Chapter 38
        Chapter #0.38: start 7758.459033, end 7857.015833
        Metadata:
          title           : Chapter 39
        Chapter #0.39: start 7857.015833, end 8402.852789
        Metadata:
          title           : Chapter 40
        Stream #0.0(und): Video: h264 (Constrained Baseline), yuv420p, 1920x1080, 10819 kb/s, 23.98 fps, 23.98 tbr, 90k tbn, 47.95 tbc
        Metadata:
          creation_time   : 2012-09-14 05:46:35
        Stream #0.1(eng): Audio: ac3, 48000 Hz, 6 channels, s16, 384 kb/s
        Metadata:
          creation_time   : 2012-09-14 05:46:35
        Stream #0.2(und): Subtitle: text / 0x74786574
        Metadata:
          creation_time   : 2012-09-14 05:46:35
    At least one output file must be specified
    
    DEBUG:pyTivo.video.transcode:aFreq=48000; vFps=23.98; container=mov; kbps=11205; mapAudio=[('0.1', '(eng)')]; vHeight=1080; vCodec=h264; Supported=True; aKbps=384; par=None; millisecs=8403000; par2=None; par1=None; mapVideo=0.0; vWidth=1920; dar1=None; aCodec=ac3
    DEBUG:pyTivo.video.transcode:CACHE HIT! /RAID/Recordings/Batman/Batman 05 Begins (Recorded Sun Jul 22, 2012, BluRay).mp4
    DEBUG:pyTivo.video.transcode:TRANSCODE=NO, all compatible, /RAID/Recordings/Batman/Batman 05 Begins (Recorded Sun Jul 22, 2012, BluRay).mp4
    DEBUG:pyTivo.video.transcode:CACHE HIT! /RAID/Recordings/Batman/Batman 05 Begins (Recorded Sun Jul 22, 2012, BluRay).mp4
    DEBUG:pyTivo.video.transcode:CACHE HIT! /RAID/Recordings/Batman/Batman 05 Begins (Recorded Sun Jul 22, 2012, BluRay).mp4
    DEBUG:pyTivo.video.transcode:TRANSCODE=NO, all compatible, /RAID/Recordings/Batman/Batman 05 Begins (Recorded Sun Jul 22, 2012, BluRay).mp4
    DEBUG:pyTivo.video.transcode:CACHE HIT! /RAID/Recordings/Batman/Batman 05 Begins (Recorded Sun Jul 22, 2012, BluRay).mp4
    DEBUG:pyTivo.video.transcode:CACHE HIT! /RAID/Recordings/Batman/Batman 05 Begins (Recorded Sun Jul 22, 2012, BluRay).mp4
    DEBUG:pyTivo.video.transcode:TRANSCODE=NO, all compatible, /RAID/Recordings/Batman/Batman 05 Begins (Recorded Sun Jul 22, 2012, BluRay).mp4
    DEBUG:pyTivo.mind:__login
    {'cams_security_domain': 'tivocom', 'cams_login_config': 'http', 'cams_cb_password': 'XXXXXXXX', 'cams_original_url': '/mind/mind7?type=infoGet', 'cams_cb_username': 'XXXXXXXXYYYYYYYZZZZZ'}
    DEBUG:pyTivo.mind:pcBodySearch
    {}
    
    <pcBodyList><isBottom>true</isBottom><isTop>true</isTop><pcBody><bucketNumber>-1</bucketNumber><levelOfDetail>low</levelOfDetail><name>pyTivo</name><pcBodyId>tivo:pc.1001365511</pcBodyId><type>pcBody</type></pcBody></pcBodyList>g
    DEBUG:pyTivo.mind:bodyOfferModify&bodyId=tsn:74600019082CD5F
    {'description': "Following his parents' brutal murder, Bruce Wayne trains with a skilled ninja and returns to Gotham City, only to find it overrun with crime and corruption. After discovering a cave under Wayne Manor, Bruce assumes a new identity.", 'pcBodyId': 'tivo:pc.1001365511', 'publishDate': '2012-10-13 16:0217', 'partnerId': 'tivo:pt.3187', 'duration': 8403, 'size': 11770416750, 'title': 'Batman Begins', 'url': 'http://192.168.1.50:9032/RAID%20Server/Batman/Batman%2005%20Begins%20%28Recorded%20Sun%20Jul%2022%2C%202012%2C%20BluRay%29.mp4?Format=video/mp4', 'bodyId': 'tsn:74600019082CD5F', 'source': 'Batman Begins', 'state': 'complete', 'encodingType': 'avcL41MP4'}
    
    <bodyOffer><bodyId>tsn:74600019082CD5F</bodyId><bodyOfferId>tivo:bo.15002971</bodyOfferId><createDate>2012-10-13 16:02:18</createDate><description>Following his parents' brutal murder, Bruce Wayne trains with a skilled ninja and returns to Gotham City, only to find it overrun with crime and corruption. After discovering a cave under Wayne Manor, Bruce assumes a new identity.</description><duration>8403</duration><encodingType>avcL41MP4</encodingType><levelOfDetail>high</levelOfDetail><offerId>tivo:of.bs.15002971</offerId><partnerId>tivo:pt.3187</partnerId><pcBodyId>tivo:pc.1001365511</pcBodyId><publishDate>2012-10-13 19:37:00</publishDate><size>11770416750</size><source>Batman Begins</source><state>complete</state><title>Batman Begins</title><updateDate>2012-10-13 16:02:18</updateDate><url>http://192.168.1.50:9032/RAID%20Server/Batman/Batman%2005%20Begins%20%28Recorded%20Sun%20Jul%2022%2C%202012%2C%20BluRay%29.mp4?Format=video/mp4</url></bodyOffer>g
    DEBUG:pyTivo.mind:subscribe&bodyId=tsn:74600019082CD5F
    {'uiType': 'cds', 'idSetSource': {'contentId': 'tivo:ct.bs.15002971', 'type': 'singleOfferSource', 'offerId': 'tivo:of.bs.15002971'}, 'bodyId': 'tsn:74600019082CD5F', 'title': 'pcBodySubscription'}
    
    <subscribeResult><subscription><autoRecord>true</autoRecord><bodyGeneratesCandidates>false</bodyGeneratesCandidates><bodyId>tsn:74600019082CD5F</bodyId><hdOnly>false</hdOnly><idSetSource><contentId>tivo:ct.bs.15002971</contentId><offerId>tivo:of.bs.15002971</offerId><type>singleOfferSource</type></idSetSource><isAdult>false</isAdult><isForKids>false</isForKids><levelOfDetail>high</levelOfDetail><showStatus>rerunsAllowed</showStatus><subscriptionId>tivo:sb.15003071</subscriptionId><title>pcBodySubscription</title><type>subscription</type><uiType>cds</uiType></subscription></subscribeResult>g
    INFO:pyTivo.video.video:[13/Oct/2012 11:03:15] Queued "/RAID/Recordings/An Affair to Remember (Recorded Tue Oct 02, 2012, TCMHD).mp4" for Push to Premier Theater
    INFO:pyTivo:192.168.1.50 [13/Oct/2012 11:03:15] "POST /TivoConnect HTTP/1.0" 200 -
    DEBUG:pyTivo.video.transcode:starting ffmpeg, will wait 10 seconds for it to complete
    DEBUG:pyTivo.video.transcode:ffmpeg output=FFmpeg version SVN-r25838, Copyright (c) 2000-2010 the FFmpeg developers
      built on Sep 20 2011 17:00:01 with gcc 4.4.5
      configuration: --enable-libdc1394 --prefix=/usr --extra-cflags='-Wall -g ' --cc='ccache cc' --enable-shared --enable-libmp3lame --enable-gpl --enable-libvorbis --enable-pthreads --enable-libfaac --enable-libxvid --enable-postproc --enable-x11grab --enable-libgsm --enable-libtheora --enable-libopencore-amrnb --enable-libopencore-amrwb --enable-libx264 --enable-libspeex --enable-nonfree --disable-stripping --enable-avfilter --enable-libdirac --disable-decoder=libdirac --enable-libschroedinger --disable-encoder=libschroedinger --enable-version3 --enable-libopenjpeg --enable-libvpx --enable-librtmp --extra-libs=-lgcrypt --disable-altivec --disable-armv5te --disable-armv6 --disable-vis
      libavutil     50.33. 0 / 50.43. 0
      libavcore      0.14. 0 /  0.14. 0
      libavcodec    52.97. 2 / 52.123. 0
      libavformat   52.87. 1 / 52.111. 0
      libavdevice   52. 2. 2 / 52. 2. 2
      libavfilter    1.65. 0 /  1.65. 0
      libswscale     0.12. 0 /  0.14. 1
      libpostproc   51. 2. 0 / 51. 2. 0
    
    Seems stream 0 codec frame rate differs from container frame rate: 59.94 (60000/1001) -> 29.97 (2997/100)
    Input #0, mov,mp4,m4a,3gp,3g2,mj2, from '/RAID/Recordings/An Affair to Remember (Recorded Tue Oct 02, 2012, TCMHD).mp4':
      Metadata:
        major_brand     : isom
        minor_version   : 512
        compatible_brands: isomiso2avc1mp41
        creation_time   : 1970-01-01 00:00:00
        encoder         : Lavf52.64.2
      Duration: 01:54:44.27, start: 0.000000, bitrate: 6988 kb/s
        Stream #0.0(und): Video: h264 (High), yuv420p, 1920x1080 [PAR 1:1 DAR 16:9], 6533 kb/s, 29.97 fps, 29.97 tbr, 29970 tbn, 59.94 tbc
        Metadata:
          creation_time   : 1970-01-01 00:00:00
        Stream #0.1(eng): Audio: ac3, 48000 Hz, 6 channels, s16, 448 kb/s
        Metadata:
          creation_time   : 1970-01-01 00:00:00
    At least one output file must be specified
    
    DEBUG:pyTivo.video.transcode:aFreq=48000; vFps=29.97; container=mov; kbps=6988; mapAudio=[('0.1', '(eng)')]; vHeight=1080; vCodec=h264; Supported=True; aKbps=448; par=None; millisecs=6884270; par2=1.0; par1=1:1; mapVideo=0.0; vWidth=1920; dar1=16:9; aCodec=ac3
    DEBUG:pyTivo.video.transcode:CACHE HIT! /RAID/Recordings/An Affair to Remember (Recorded Tue Oct 02, 2012, TCMHD).mp4
    DEBUG:pyTivo.video.transcode:TRANSCODE=NO, all compatible, /RAID/Recordings/An Affair to Remember (Recorded Tue Oct 02, 2012, TCMHD).mp4
    DEBUG:pyTivo.video.transcode:CACHE HIT! /RAID/Recordings/An Affair to Remember (Recorded Tue Oct 02, 2012, TCMHD).mp4
    DEBUG:pyTivo.video.transcode:CACHE HIT! /RAID/Recordings/An Affair to Remember (Recorded Tue Oct 02, 2012, TCMHD).mp4
    DEBUG:pyTivo.video.transcode:TRANSCODE=NO, all compatible, /RAID/Recordings/An Affair to Remember (Recorded Tue Oct 02, 2012, TCMHD).mp4
    DEBUG:pyTivo.video.transcode:CACHE HIT! /RAID/Recordings/An Affair to Remember (Recorded Tue Oct 02, 2012, TCMHD).mp4
    DEBUG:pyTivo.video.transcode:CACHE HIT! /RAID/Recordings/An Affair to Remember (Recorded Tue Oct 02, 2012, TCMHD).mp4
    DEBUG:pyTivo.video.transcode:TRANSCODE=NO, all compatible, /RAID/Recordings/An Affair to Remember (Recorded Tue Oct 02, 2012, TCMHD).mp4
    DEBUG:pyTivo.mind:__login
    {'cams_security_domain': 'tivocom', 'cams_login_config': 'http', 'cams_cb_password': 'XXXXXXXX', 'cams_original_url': '/mind/mind7?type=infoGet', 'cams_cb_username': 'XXXXXXXXYYYYYYYZZZZZ'}
    DEBUG:pyTivo.mind:pcBodySearch
    {}
    
    <pcBodyList><isBottom>true</isBottom><isTop>true</isTop><pcBody><bucketNumber>-1</bucketNumber><levelOfDetail>low</levelOfDetail><name>pyTivo</name><pcBodyId>tivo:pc.1001365511</pcBodyId><type>pcBody</type></pcBody></pcBodyList>g
    DEBUG:pyTivo.mind:bodyOfferModify&bodyId=tsn:74600019082CD5F
    {'description': '', 'pcBodyId': 'tivo:pc.1001365511', 'publishDate': '2012-10-13 16:0322', 'partnerId': 'tivo:pt.3187', 'duration': 6884, 'size': 6013506690, 'title': 'An Affair to Remember (Recorded Tue Oct 02, 2012, TCMHD)', 'url': 'http://192.168.1.50:9032/RAID%20Server/An%20Affair%20to%20Remember%20%28Recorded%20Tue%20Oct%2002%2C%202012%2C%20TCMHD%29.mp4?Format=video/mp4', 'bodyId': 'tsn:74600019082CD5F', 'source': 'An Affair to Remember (Recorded Tue Oct 02, 2012, TCMHD)', 'state': 'complete', 'encodingType': 'avcL41MP4'}
    
    <bodyOffer><bodyId>tsn:74600019082CD5F</bodyId><bodyOfferId>tivo:bo.15002981</bodyOfferId><createDate>2012-10-13 16:03:23</createDate><description /><duration>6884</duration><encodingType>avcL41MP4</encodingType><levelOfDetail>high</levelOfDetail><offerId>tivo:of.bs.15002981</offerId><partnerId>tivo:pt.3187</partnerId><pcBodyId>tivo:pc.1001365511</pcBodyId><publishDate>2012-10-13 21:22:00</publishDate><size>6013506690</size><source>An Affair to Remember (Recorded Tue Oct 02, 2012, TCMHD)</source><state>complete</state><title>An Affair to Remember (Recorded Tue Oct 02, 2012, TCMHD)</title><updateDate>2012-10-13 16:03:23</updateDate><url>http://192.168.1.50:9032/RAID%20Server/An%20Affair%20to%20Remember%20%28Recorded%20Tue%20Oct%2002%2C%202012%2C%20TCMHD%29.mp4?Format=video/mp4</url></bodyOffer>g
    DEBUG:pyTivo.mind:subscribe&bodyId=tsn:74600019082CD5F
    {'uiType': 'cds', 'idSetSource': {'contentId': 'tivo:ct.bs.15002981', 'type': 'singleOfferSource', 'offerId': 'tivo:of.bs.15002981'}, 'bodyId': 'tsn:74600019082CD5F', 'title': 'pcBodySubscription'}
    
    <subscribeResult><subscription><autoRecord>true</autoRecord><bodyGeneratesCandidates>false</bodyGeneratesCandidates><bodyId>tsn:74600019082CD5F</bodyId><hdOnly>false</hdOnly><idSetSource><contentId>tivo:ct.bs.15002981</contentId><offerId>tivo:of.bs.15002981</offerId><type>singleOfferSource</type></idSetSource><isAdult>false</isAdult><isForKids>false</isForKids><levelOfDetail>high</levelOfDetail><showStatus>rerunsAllowed</showStatus><subscriptionId>tivo:sb.15003081</subscriptionId><title>pcBodySubscription</title><type>subscription</type><uiType>cds</uiType></subscription></subscribeResult>g
    INFO:pyTivo.video.video:[13/Oct/2012 11:03:29] Queued "/RAID/Recordings/Willy Wonka and the Chocolate Factory (Recorded Mon Oct 01, 2012, BluRay).mp4" for Push to Premier Theater
    INFO:pyTivo:192.168.1.50 [13/Oct/2012 11:03:29] "POST /TivoConnect HTTP/1.0" 200 -
    DEBUG:pyTivo.video.transcode:starting ffmpeg, will wait 10 seconds for it to complete
    DEBUG:pyTivo.video.transcode:ffmpeg output=FFmpeg version SVN-r25838, Copyright (c) 2000-2010 the FFmpeg developers
      built on Sep 20 2011 17:00:01 with gcc 4.4.5
      configuration: --enable-libdc1394 --prefix=/usr --extra-cflags='-Wall -g ' --cc='ccache cc' --enable-shared --enable-libmp3lame --enable-gpl --enable-libvorbis --enable-pthreads --enable-libfaac --enable-libxvid --enable-postproc --enable-x11grab --enable-libgsm --enable-libtheora --enable-libopencore-amrnb --enable-libopencore-amrwb --enable-libx264 --enable-libspeex --enable-nonfree --disable-stripping --enable-avfilter --enable-libdirac --disable-decoder=libdirac --enable-libschroedinger --disable-encoder=libschroedinger --enable-version3 --enable-libopenjpeg --enable-libvpx --enable-librtmp --extra-libs=-lgcrypt --disable-altivec --disable-armv5te --disable-armv6 --disable-vis
      libavutil     50.33. 0 / 50.43. 0
      libavcore      0.14. 0 /  0.14. 0
      libavcodec    52.97. 2 / 52.123. 0
      libavformat   52.87. 1 / 52.111. 0
      libavdevice   52. 2. 2 / 52. 2. 2
      libavfilter    1.65. 0 /  1.65. 0
      libswscale     0.12. 0 /  0.14. 1
      libpostproc   51. 2. 0 / 51. 2. 0
    Input #0, mov,mp4,m4a,3gp,3g2,mj2, from '/RAID/Recordings/Willy Wonka and the Chocolate Factory (Recorded Mon Oct 01, 2012, BluRay).mp4':
      Metadata:
        major_brand     : mp42
        minor_version   : 0
        compatible_brands: mp42isomavc1
        creation_time   : 2012-10-02 03:22:55
        encoder         : HandBrake 0.9.6 2012022800
      Duration: 01:39:45.24, start: 0.000000, bitrate: 18907 kb/s
        Stream #0.0(und): Video: h264 (Constrained Baseline), yuv420p, 1920x1080, 18521 kb/s, 29.97 fps, 29.97 tbr, 90k tbn, 59.94 tbc
        Metadata:
          creation_time   : 2012-10-02 03:22:55
        Stream #0.1(eng): Audio: ac3, 48000 Hz, 6 channels, s16, 384 kb/s
        Metadata:
          creation_time   : 2012-10-02 03:22:55
    At least one output file must be specified
    
    DEBUG:pyTivo.video.transcode:aFreq=48000; vFps=29.97; container=mov; kbps=18907; mapAudio=[('0.1', '(eng)')]; vHeight=1080; vCodec=h264; Supported=True; aKbps=384; par=None; millisecs=5985240; par2=None; par1=None; mapVideo=0.0; vWidth=1920; dar1=None; aCodec=ac3
    DEBUG:pyTivo.video.transcode:CACHE HIT! /RAID/Recordings/Willy Wonka and the Chocolate Factory (Recorded Mon Oct 01, 2012, BluRay).mp4
    DEBUG:pyTivo.video.transcode:TRANSCODE=NO, all compatible, /RAID/Recordings/Willy Wonka and the Chocolate Factory (Recorded Mon Oct 01, 2012, BluRay).mp4
    DEBUG:pyTivo.video.transcode:CACHE HIT! /RAID/Recordings/Willy Wonka and the Chocolate Factory (Recorded Mon Oct 01, 2012, BluRay).mp4
    DEBUG:pyTivo.video.transcode:CACHE HIT! /RAID/Recordings/Willy Wonka and the Chocolate Factory (Recorded Mon Oct 01, 2012, BluRay).mp4
    DEBUG:pyTivo.video.transcode:TRANSCODE=NO, all compatible, /RAID/Recordings/Willy Wonka and the Chocolate Factory (Recorded Mon Oct 01, 2012, BluRay).mp4
    DEBUG:pyTivo.video.transcode:CACHE HIT! /RAID/Recordings/Willy Wonka and the Chocolate Factory (Recorded Mon Oct 01, 2012, BluRay).mp4
    DEBUG:pyTivo.video.transcode:CACHE HIT! /RAID/Recordings/Willy Wonka and the Chocolate Factory (Recorded Mon Oct 01, 2012, BluRay).mp4
    DEBUG:pyTivo.video.transcode:TRANSCODE=NO, all compatible, /RAID/Recordings/Willy Wonka and the Chocolate Factory (Recorded Mon Oct 01, 2012, BluRay).mp4
    DEBUG:pyTivo.mind:__login
    {'cams_security_domain': 'tivocom', 'cams_login_config': 'http', 'cams_cb_password': 'XXXXXXXX', 'cams_original_url': '/mind/mind7?type=infoGet', 'cams_cb_username': 'XXXXXXXXYYYYYYYZZZZZ'}
    DEBUG:pyTivo.mind:pcBodySearch
    {}
    
    <pcBodyList><isBottom>true</isBottom><isTop>true</isTop><pcBody><bucketNumber>-1</bucketNumber><levelOfDetail>low</levelOfDetail><name>pyTivo</name><pcBodyId>tivo:pc.1001365511</pcBodyId><type>pcBody</type></pcBody></pcBodyList>g
    DEBUG:pyTivo.mind:bodyOfferModify&bodyId=tsn:74600019082CD5F
    {'description': "Eccentric candy man Willy Wonka prompts a frenzy when he announces that five golden tickets hidden inside his candy bars will get their holders into his top-secret factory. Amidst a world of Oompa Loompas and chocolate rivers, young Charlie Bucket and Grandpa Joe get caught in the middle of Wonka's secret agenda in director Mel Stuart's Oscar-nominated fantasy based on Roald Dahl's award-winning book.", 'pcBodyId': 'tivo:pc.1001365511', 'publishDate': '2012-10-13 16:0336', 'partnerId': 'tivo:pt.3187', 'duration': 5985, 'size': 14145797400, 'title': 'Willy Wonka & the Chocolate Factory', 'url': 'http://192.168.1.50:9032/RAID%20Server/Willy%20Wonka%20and%20the%20Chocolate%20Factory%20%28Recorded%20Mon%20Oct%2001%2C%202012%2C%20BluRay%29.mp4?Format=video/mp4', 'bodyId': 'tsn:74600019082CD5F', 'source': 'Willy Wonka & the Chocolate Factory', 'state': 'complete', 'encodingType': 'avcL41MP4'}
    
    <bodyOffer><bodyId>tsn:74600019082CD5F</bodyId><bodyOfferId>tivo:bo.15002991</bodyOfferId><createDate>2012-10-13 16:03:37</createDate><description>Eccentric candy man Willy Wonka prompts a frenzy when he announces that five golden tickets hidden inside his candy bars will get their holders into his top-secret factory. Amidst a world of Oompa Loompas and chocolate rivers, young Charlie Bucket and Grandpa Joe get caught in the middle of Wonka's secret agenda in director Mel Stuart's Oscar-nominated fantasy based on Roald Dahl's award-winning book.</description><duration>5985</duration><encodingType>avcL41MP4</encodingType><levelOfDetail>high</levelOfDetail><offerId>tivo:of.bs.15002991</offerId><partnerId>tivo:pt.3187</partnerId><pcBodyId>tivo:pc.1001365511</pcBodyId><publishDate>2012-10-13 21:36:00</publishDate><size>14145797400</size><source>Willy Wonka &amp; the Chocolate Factory</source><state>complete</state><title>Willy Wonka &amp; the Chocolate Factory</title><updateDate>2012-10-13 16:03:37</updateDate><url>http://192.168.1.50:9032/RAID%20Server/Willy%20Wonka%20and%20the%20Chocolate%20Factory%20%28Recorded%20Mon%20Oct%2001%2C%202012%2C%20BluRay%29.mp4?Format=video/mp4</url></bodyOffer>g
    DEBUG:pyTivo.mind:subscribe&bodyId=tsn:74600019082CD5F
    {'uiType': 'cds', 'idSetSource': {'contentId': 'tivo:ct.bs.15002991', 'type': 'singleOfferSource', 'offerId': 'tivo:of.bs.15002991'}, 'bodyId': 'tsn:74600019082CD5F', 'title': 'pcBodySubscription'}
    
    <subscribeResult><subscription><autoRecord>true</autoRecord><bodyGeneratesCandidates>false</bodyGeneratesCandidates><bodyId>tsn:74600019082CD5F</bodyId><hdOnly>false</hdOnly><idSetSource><contentId>tivo:ct.bs.15002991</contentId><offerId>tivo:of.bs.15002991</offerId><type>singleOfferSource</type></idSetSource><isAdult>false</isAdult><isForKids>false</isForKids><levelOfDetail>high</levelOfDetail><showStatus>rerunsAllowed</showStatus><subscriptionId>tivo:sb.15003091</subscriptionId><title>pcBodySubscription</title><type>subscription</type><uiType>cds</uiType></subscription></subscribeResult>g
    INFO:pyTivo:192.168.1.105 [13/Oct/2012 11:04:05] "GET /TiVoConnect?Command=QueryContainer&Container=%2F&DoGenres=1 HTTP/1.0" 200 -
    DEBUG:pyTivo.video.transcode:CACHE HIT! /RAID/Recordings/An Affair to Remember (Recorded Tue Oct 02, 2012, TCMHD).mp4
    DEBUG:pyTivo.video.transcode:TRANSCODE=NO, all compatible, /RAID/Recordings/An Affair to Remember (Recorded Tue Oct 02, 2012, TCMHD).mp4
    INFO:pyTivo:192.168.1.105 [13/Oct/2012 11:04:48] "GET /RAID%20Server/An%20Affair%20to%20Remember%20(Recorded%20Tue%20Oct%2002,%202012,%20TCMHD).mp4?Format=video%2Fmp4 HTTP/1.1" 206 -
    INFO:pyTivo.video.video:[13/Oct/2012 11:04:48] Start sending "/RAID/Recordings/An Affair to Remember (Recorded Tue Oct 02, 2012, TCMHD).mp4" to Premier Theater
    DEBUG:pyTivo.video.video:"/RAID/Recordings/An Affair to Remember (Recorded Tue Oct 02, 2012, TCMHD).mp4" is tivo compatible
    DEBUG:pyTivo.video.qt-faststart:Getting index of top level atoms...
    DEBUG:pyTivo.video.qt-faststart:ftyp: 32
    DEBUG:pyTivo.video.qt-faststart:moov: 5376780
    DEBUG:pyTivo.video.qt-faststart:mdat: 6008129878
    DEBUG:pyTivo.video.qt-faststart:mp4 already streamable -- copying
    INFO:pyTivo:192.168.1.105 [13/Oct/2012 11:05:27] "GET /TiVoConnect?Command=QueryContainer&Container=%2F&DoGenres=1 HTTP/1.0" 200 -
    INFO:pyTivo.video.video:[13/Oct/2012 11:13:25] Done sending "/RAID/Recordings/An Affair to Remember (Recorded Tue Oct 02, 2012, TCMHD).mp4" to Premier Theater, 6013506690 bytes, 88.77 Mb/s
    INFO:pyTivo:192.168.1.105 [13/Oct/2012 11:17:35] "GET /TiVoConnect?Command=QueryContainer&Container=%2F&DoGenres=1 HTTP/1.0" 200 -
    INFO:pyTivo:192.168.1.105 [13/Oct/2012 11:17:59] "GET /TiVoConnect?Command=QueryContainer&Container=%2F&DoGenres=1 HTTP/1.0" 200 -
     
  16. Iluvatar

    Iluvatar New Member

    377
    0
    Jul 22, 2006
    My pushes have been failing all over the place also and I've seen a couple other complaints elsewhere on the same issue. The login to the TiVo mind server succeeds but the followup request has not been coming through on 75% of what I try to transfer. Perhaps there is an issue on TiVo's side lately.

    There is not a whole lot that can be done in this circumstance. pyTivo is just waiting on the mind server to send a request.
     
  17. lpwcomp

    lpwcomp Active Member

    8,075
    2
    May 6, 2002
    John's...
    I've been having problems lately too but I thought Ii was related to the fact that most of my pushes are to a remote TiVo. Guess not.
     
  18. lrhorer

    lrhorer New Member

    6,922
    0
    Aug 31, 2003
    San...
    OK, first of all, I confirmed the failures are happening on both the S3 and S4 platforms, so they are not likely to be related to the issues I have been having with Orangeboy's remote program.

    Secondly, pending further investigation, it is preliminarily looking as if very specific titles are failing every time while other specific titles are successful every time. I could easily be mistaken until I do a bit of testing, however. If it is true, however, then there must be something very specific about the failing titles that is causing them to fail. If we can pinpoint the cause of the failures, we should be able to circumvent them.
     
  19. lpwcomp

    lpwcomp Active Member

    8,075
    2
    May 6, 2002
    John's...
    Not seeing any kind of consistency. Sometimes it works and sometimes it doesn't. Remote destination TiVo is a Series 2.

    One more datum: U-verse internet on both ends.

    pytivo output with debug on:
    Code:
    INFO:pyTivo.video.video:[14/Oct/2012 08:58:25] Queued "G:\\kmttgmpegs\Burkes Law
    .5838.Who Killed Purity Mather.mpg" for Push to 1300000801E990C
    INFO:pyTivo:127.0.0.1 [14/Oct/2012 08:58:25] "POST /TiVoConnect HTTP/1.1" 200 -
    DEBUG:pyTivo.video.transcode:starting ffmpeg, will wait 10 seconds for it to com
    plete
    DEBUG:pyTivo.video.transcode:ffmpeg output=FFmpeg version SVN-r21659-rdian06-1.0
    2-win-x86_32, Copyright (c) 2000-2010 Fabrice Bellard, et al.
      built on Aug 24 2010 20:46:16 with gcc 4.4.0
      configuration: --enable-memalign-hack --disable-debug --enable-hardcoded-table
    s --enable-runtime-cpudetect --enable-static --disable-shared --disable-ffserver
     --disable-ffplay --enable-gpl --enable-pthreads --enable-libmp3lame --enable-li
    bvorbis --enable-libtheora --enable-libspeex --enable-libgsm --enable-libx264 --
    enable-libschroedinger --enable-libfaad --enable-libxvid --disable-decoder=aac -
    -enable-avisynth --enable-postproc --enable-avfilter --enable-avfilter-lavf
      libavutil     50. 8. 0 / 50. 8. 0
      libavcodec    52.52. 0 / 52.52. 0
      libavformat   52.50. 0 / 52.50. 0
      libavdevice   52. 2. 0 / 52. 2. 0
      libavfilter    1.17. 0 /  1.17. 0
      libswscale     0.10. 0 /  0.10. 0
      libpostproc   51. 2. 0 / 51. 2. 0
    [mpeg2video @ 0x186efc0]mpeg_decode_postinit() failure
        Last message repeated 11 times
    [mpeg @ 0x186dd10]max_analyze_duration reached
    
    Seems stream 0 codec frame rate differs from container frame rate: 59.94 (60000/
    1001) -> 29.97 (30000/1001)
    Input #0, mpeg, from 'G:\\kmttgmpegs\Burkes Law.5838.Who Killed Purity Mather.mp
    g':
      Duration: 01:00:02.10, start: 0.522744, bitrate: 3249 kb/s
        Stream #0.0[0x1e0]: Video: mpeg2video, yuv420p, 704x480 [PAR 10:11 DAR 4:3],
     15000 kb/s, 29.97 fps, 29.97 tbr, 90k tbn, 59.94 tbc
        Stream #0.1[0x1bd]: Audio: ac3, 48000 Hz, stereo, s16, 192 kb/s
    At least one output file must be specified
    
    DEBUG:pyTivo.video.transcode:aFreq=48000; aCh=2; container=mpeg; kbps=3249; mapA
    udio=[('0.1', '[0x1bd] ac3, 48000 Hz, stereo, s16, 192 kb/s\r')]; vHeight=480; v
    Codec=mpeg2video; Supported=True; aKbps=192; par=None; millisecs=3602100; vFps=2
    9.97; par2=0.909090909091; par1=10:11; mapVideo=0.0; vWidth=704; dar1=4:3; rawme
    ta={}; aCodec=ac3
    DEBUG:pyTivo.video.transcode:CACHE HIT! G:\\kmttgmpegs\Burkes Law.5838.Who Kille
    d Purity Mather.mpg
    DEBUG:pyTivo.video.transcode:CACHE HIT! G:\\kmttgmpegs\Burkes Law.5838.Who Kille
    d Purity Mather.mpg
    INFO:pyTivo:127.0.0.1 [14/Oct/2012 08:58:30] "GET /TiVoConnect?Command=QueryCont
    ainer&Container=GVideo/kmttgmpegs&Format=text/html HTTP/1.1" 200 -
    DEBUG:pyTivo.video.transcode:TRANSCODE=NO, all compatible, G:\\kmttgmpegs\Burkes
     Law.5838.Who Killed Purity Mather.mpg
    DEBUG:pyTivo.video.transcode:CACHE HIT! G:\\kmttgmpegs\Burkes Law.5838.Who Kille
    d Purity Mather.mpg
    DEBUG:pyTivo.video.transcode:CACHE HIT! G:\\kmttgmpegs\Burkes Law.5838.Who Kille
    d Purity Mather.mpg
    DEBUG:pyTivo.video.transcode:TRANSCODE=NO, all compatible, G:\\kmttgmpegs\Burkes
     Law.5838.Who Killed Purity Mather.mpg
    INFO:pyTivo:127.0.0.1 [14/Oct/2012 08:58:30] "GET /main.css HTTP/1.1" 200 -
    DEBUG:pyTivo.mind:__login
    {'cams_security_domain': 'tivocom', 'cams_login_config': 'http', 'cams_cb_passwo
    rd': <redacted>, 'cams_original_url': '/mind/mind7?type=infoGet', 'cams_cb_usern
    ame': <redacted>}
    DEBUG:pyTivo.mind:pcBodySearch
    {}
    
    <pcBodyList><isBottom>true</isBottom><isTop>true</isTop><pcBody><bucketNumber>-1
    </bucketNumber><levelOfDetail>low</levelOfDetail><name>pyTivo</name><pcBodyId>ti
    vo:pc.1002175891</pcBodyId><type>pcBody</type></pcBody></pcBodyList>g
    DEBUG:pyTivo.mind:bodyOfferModify&bodyId=tsn:<redacted>
    {'subtitle': 'Who Killed Purity Mather?', 'description': 'A sorceress sends Burk
    e a message that lists the suspects in his upcoming murder; guests Wally Cox, Te
    lly Savalas, Gloria Swanson.', 'pcBodyId': 'tivo:pc.1002175891', 'publishDate':
    '2012-10-14 12:5832', 'partnerId': 'tivo:pt.3187', 'duration': 3602, 'size': 146
    2954742, 'title': "Burke's Law", 'url': 'http://<redacted>:9032/GVideo/kmttgm
    pegs/Burkes%20Law.5838.Who%20Killed%20Purity%20Mather.mpg?Format=video/mpeg', 'b
    odyId': 'tsn:<redacted>', 'source': 'SH000716', 'state': 'complete', 'encod
    ingType': 'mpeg2ProgramStream', 'tvRating': 'pg'}
    
    <bodyOffer><bodyId>tsn:<redacted></bodyId><bodyOfferId>tivo:bo.15001841</bo
    dyOfferId><createDate>2012-10-14 13:01:27</createDate><description>A sorceress s
    ends Burke a message that lists the suspects in his upcoming murder; guests Wall
    y Cox, Telly Savalas, Gloria Swanson.</description><duration>3602</duration><enc
    odingType>mpeg2ProgramStream</encodingType><levelOfDetail>high</levelOfDetail><o
    fferId>tivo:of.bs.15001841</offerId><partnerId>tivo:pt.3187</partnerId><pcBodyId
    >tivo:pc.1002175891</pcBodyId><publishDate>2012-10-18 13:12:00</publishDate><siz
    e>1462954742</size><source>SH000716</source><state>complete</state><subtitle>Who
     Killed Purity Mather?</subtitle><title>Burke's Law</title><tvRating>pg</tvRatin
    g><updateDate>2012-10-14 13:01:27</updateDate><url>http://<redacted>:9032/GVi
    deo/kmttgmpegs/Burkes%20Law.5838.Who%20Killed%20Purity%20Mather.mpg?Format=video
    /mpeg</url></bodyOffer>g
    DEBUG:pyTivo.mind:subscribe&bodyId=tsn:<redacted>
    {'uiType': 'cds', 'idSetSource': {'contentId': 'tivo:ct.bs.15001841', 'type': 's
    ingleOfferSource', 'offerId': 'tivo:of.bs.15001841'}, 'bodyId': 'tsn:<redacted>', 'title': 'pcBodySubscription'}
    
    <subscribeResult><subscription><autoRecord>true</autoRecord><bodyGeneratesCandid
    ates>false</bodyGeneratesCandidates><bodyId>tsn:1300000801E990C</bodyId><hdOnly>
    false</hdOnly><idSetSource><contentId>tivo:ct.bs.15001841</contentId><offerId>ti
    vo:of.bs.15001841</offerId><type>singleOfferSource</type></idSetSource><isAdult>
    false</isAdult><isForKids>false</isForKids><levelOfDetail>high</levelOfDetail><s
    howStatus>rerunsAllowed</showStatus><subscriptionId>tivo:sb.15001851</subscripti
    onId><title>pcBodySubscription</title><type>subscription</type><uiType>cds</uiTy
    pe></subscription></subscribeResult>g
     
  20. lrhorer

    lrhorer New Member

    6,922
    0
    Aug 31, 2003
    San...
    I'm seeing failure rates in excess of 75%. I just attempted to push a single video multiple times. Finally, on the 5th attempt, it started to transfer.
     

Share This Page