1. This site uses cookies. By continuing to use this site, you are agreeing to our use of cookies. Learn More.

New program for 1 step TTG downloads, decryption, encoding - kmttg

Discussion in 'TiVo Home Media Features & TiVoToGo' started by moyekj, Mar 15, 2008.

  1. Feb 20, 2013 #4821 of 10413
    Fofer

    Fofer XenForo Rocks! TCF Club

    82,141
    304
    Oct 29, 2000
    autotune?

    as in... autotune?

     
  2. Feb 20, 2013 #4822 of 10413
    cherry ghost

    cherry ghost Active Member

    5,279
    6
    Sep 13, 2005
    Chicago
    I find the downloads are faster if the TiVo is tuned to channels I don't receive
     
  3. Feb 20, 2013 #4823 of 10413
    moyekj

    moyekj Well-Known Member

    11,144
    32
    Jan 23, 2006
    Mission...
    Yes, I know that was the original intent and was just kidding. I guess since I mostly moved to series 4 units which are much, much faster for downloads it became irrelevant.

    So you're saying that autotune jobs currently queue as well when kmttg is busy with other tasks?
     
  4. Feb 20, 2013 #4824 of 10413
    cherry ghost

    cherry ghost Active Member

    5,279
    6
    Sep 13, 2005
    Chicago

    Correct
     
  5. Feb 20, 2013 #4825 of 10413
    moyekj

    moyekj Well-Known Member

    11,144
    32
    Jan 23, 2006
    Mission...
    OK, that obviously doesn't make much sense and I've fixed it for next release.
     
  6. Feb 20, 2013 #4826 of 10413
    keenanSR

    keenanSR Member TCF Club

    913
    2
    Oct 12, 2004
    Santa Rosa CA
    Hey, not all of us got them new-fangled DVRs, we're still rockin' the Series 3s! :D
     
  7. Feb 20, 2013 #4827 of 10413
    unitron

    unitron Active Member

    16,389
    2
    Apr 28, 2006
    semi-coastal NC
    I sit here looking at my S2 farm and envy those rich urbanites with their fancy 6 year old S3s.

    :D
     
  8. Feb 20, 2013 #4828 of 10413
    dlfl

    dlfl Cranky old novice

    6,997
    18
    Jul 6, 2006
    Near...
    Do I hear violins playing somewhere? :p
     
  9. Feb 20, 2013 #4829 of 10413
    unitron

    unitron Active Member

    16,389
    2
    Apr 28, 2006
    semi-coastal NC
    If so, I'm sure they're quite small and your hearing is very acute to have detected them.
     
  10. Feb 20, 2013 #4830 of 10413
    wuzznuubi

    wuzznuubi New Member

    118
    0
    Jan 16, 2013
    I'm assuming kmttg uses ffmpeg to determine a file's container type and codec contents?

    Wondering if there's an ffmpeg commandline option kmttg can use in order to limit ffmpeg's time spent probing/searching to determine container/codecs.

    I'm downloading in transport stream format and using kmttg to call VideoRedo to decode and QSF the downloaded TiVo files.

    I just ran into a recording where kmttg determined the TiVo transport stream file it just downloaded was an mpeg2 transport stream file, so told VideoRedo to QSF and save as an .mpg instead of a .ts.

    I did a commandline
    Code:
    ffmpeg -report -i recording.TiVo
    on the TiVo file and the resulting text report file (after 5+ minutes of ffmpeg running) is 1.5GB!!!
     
  11. Feb 21, 2013 #4831 of 10413
    christheman

    christheman New Member

    166
    0
    Feb 20, 2013
    Hi, I have been following this thread and this is my first post.

    I have been using KMTTG for about 6 months now, and thought I should mention that it has almost completely replaced my use of the Tivo remote to program the Tivo to record movies. I am not even in same same room! The REMOTE tab (next to the FILES tab) is awesome! I think the only thing I use the wireless handheld remote for is to watch TV or delete old movies that I have already watched or transfered to PC.

    I am posting because I had an idea for moyekj: There are times when I am under the REMOTE/GUIDE tab browsing the SHOW entries and see a movie I would like to look up on IMDB. Can Java be used to make system calls to bring up a browser window and populate it with a query?? I already do this using a different programming environment, and would like to have that capability from KMTTG.

    I am opening a browser window and populating the address tab with something like this:
    ("h-t-t-p-:-/-/w-w-w" is hyphenated below just to allow me to post)

    Code:
    h-t-t-p-:-/-/w-w-w.imdb.com/find?q= {insert contents of highlighted KMTTG "SHOW" field here}
    (example movie: Forbidden Planet) <<- just leave the spaces in-between the words

    and that in turn produces a URL like this in the browser:

    Code:
    h-t-t-p-:-/-/w-w-w.imdb.com/find?q=Forbidden%20Planet
    From there, the IMDB search page presents relevent search results. The correct IMDB page is only a click away.



    Is there a way you could put another button on the GUIDE tab, perhaps to the right of the SEASON PASS, WL, and REFRESH TODO buttons? If I were doing it, I would just label it the "IMDB" button. Then when a SHOW field is highlighted blue, and that button is clicked, a new web browser window would open up (whatever browser is the default Windows system browser at the time), and the resulting IMDB search page would come up in response to the query.

    Or if that is not feasible for legal reasons, maybe put in a user-configurable web query button or two??

    Just a thought.

    Great job on the utility!

    Thanks!
    Chris
     
  12. Feb 21, 2013 #4832 of 10413
    moyekj

    moyekj Well-Known Member

    11,144
    32
    Jan 23, 2006
    Mission...
    Yes.

    No.

    I think this is not worded right and that you meant kmttg (via ffmpeg) determined it was mpeg2 program stream.[/quote]

    Just "ffmpeg -i recording.TiVo" (what kmttg uses) is sufficient and much faster. And what does that ffmpeg output look like on the file in question?

    Note that mpeg2 transport stream -> mpeg2 program stream is just a container change with no re-encoding involved and runs quick and with no loss of quality, so that's not really a big issue. A much bigger problem is if the source is H.264 video in transport stream and that is determined as mpeg2 for QSF since that would mean a complete recode to during QSF which kmttg now tries to detect and avoid.
     
  13. Feb 21, 2013 #4833 of 10413
    wuzznuubi

    wuzznuubi New Member

    118
    0
    Jan 16, 2013
    Correct

    That is what I did. The global option -report just redirected the console output to a log file. Running it without the -report option results in ffmpeg taking over 5 minutes (normally <1 sec) on a i7 Quad Core system and spitting out hundreds of lines of stats while it does it's probing. Obviously ffmpeg doesn't decrypt an encoded TiVo file, so cannot always probe them correctly, where MediaInfo seems to reliably work on the encrypted TiVo files.
     
  14. Feb 21, 2013 #4834 of 10413
    wmcbrine

    wmcbrine Ziphead

    10,368
    22
    Aug 2, 2003
    'It also implies "-loglevel verbose".' -- man ffmpeg

    Relevant? I dunno. But writing out 1.5 GB is bound to take a while.

    Maybe try a newer version of ffmpeg? I've seen its handling of .TiVo files get worse over time, then better again.

    In pyTivo, there's a limiting function that kills ffmpeg if it takes too long to report back. The timeout is adjustable (was default 10 seconds, but I just recently made it default to no timeout, since I've never personally found this useful).
     
  15. Feb 21, 2013 #4835 of 10413
    howards

    howards Member

    77
    0
    Oct 31, 2007
    Just to respond to the question of whether Java can initiate a browser instance with a specified URL: Yes, it certainly can. I have code to do this, and don't mind sharing it if moyekj is interested the feature.
     
  16. Feb 21, 2013 #4836 of 10413
    moyekj

    moyekj Well-Known Member

    11,144
    32
    Jan 23, 2006
    Mission...
    If you have code that works universally on all platforms then yes I am interested in finding out how. On Windows I think it's pretty easy, but on linux, Mac etc.?
     
  17. Feb 21, 2013 #4837 of 10413
    christheman

    christheman New Member

    166
    0
    Feb 20, 2013
    I'm just a Windows guy, but have you considered doing something like this?

    Assuming it might be a simple or trivial matter to show or hide a button with Java (which I don't know - hopefully an entirely different template is not necessary), and also assuming Java has the capability to detect host OS and make decisions based on that (which - you guessed it - I also don't know), then perhaps something like this might just work:

    From the point where the program is first started, determine if any version of Windows is the host OS (or any other OS deemed to be capable of executing system calls made from Java). Create a program variable to store this information. Otherwise, just set it to a null value so that the program knows to skip using that bit of code later on and then the button will never appear.

    Further on down, the same program variable would be used to both enable the button and then choose the correct system call when the user clicks it. There would need to be a different conditional statement for each OS that qualifies and requires a different system call. When the user sees the button and clicks it, the info in that variable is then used to determine and make the appropriate system call to the user's OS.

    You could start off by just including the system call for Windows, then add to it as other contributors come up with the calls for their own OS. I wouldn't expect to have all OS's represented here. This is a departure from the platform-independent philosophy, but at the same time a really neat feature to have where possible.

    In the end though you would still have one multiplatform version for users to download, which is what appears to me to be one of your main goals.
     
  18. Feb 21, 2013 #4838 of 10413
    wuzznuubi

    wuzznuubi New Member

    118
    0
    Jan 16, 2013
    Got the point, you're correct.

    Using latest build of Zeranoe's ffmpeg, it takes about 1.5 minutes to process with the following results
    Code:
    ffmpeg version N-50025-gb8bb661 Copyright (c) 2000-2013 the FFmpeg developers
      built on Feb 17 2013 02:44:12 with gcc 4.7.2 (GCC)
      configuration: --enable-gpl --enable-version3 --disable-w32threads --enable-avisynth --enable-bzlib --enable-fontconfig --enable-frei0r --enable-gnutls --enable-libass --enable-libbluray --enable-libcaca --enable-libfreetype --enable-libgsm --enable-libmp3lame --enable-libopencore-amrnb --enable-libopencore-amrwb --enable-libopenjpeg --enable-libopus --enable-librtmp --enable-libschroedinger --enable-libsoxr --enable-libspeex --enable-libtheora --enable-libtwolame --enable-libvo-aacenc --enable-libvo-amrwbenc --enable-libvorbis --enable-libvpx --enable-libx264 --enable-libxavs --enable-libxvid --enable-zlib
      libavutil      52. 17.101 / 52. 17.101
      libavcodec     54. 91.103 / 54. 91.103
      libavformat    54. 63.100 / 54. 63.100
      libavdevice    54.  3.103 / 54.  3.103
      libavfilter     3. 38.100 /  3. 38.100
      libswscale      2.  2.100 /  2.  2.100
      libswresample   0. 17.102 /  0. 17.102
      libpostproc    52.  2.100 / 52.  2.100
    [mpeg2video @ 00000000021fd5a0] 0x0 is invalid
        Last message repeated 8 times
    
    ~ 500KB of error messages
    
    Input #0, mpegts, from '1080i_recording_ts_from.TiVo':
      Duration: 01:01:00.59, start: 74314.719044, bitrate: 13879 kb/s
      Program 1 
        Stream #0:0[0x840]: Video: mpeg2video (Main) ([2][0][0][0] / 0x0002), yuv420p, 1920x1080 [SAR 1:1 DAR 16:9], 29.97 fps, 29.97 tbr, 90k tbn, 59.94 tbc
        Stream #0:1[0x841]: Audio: ac3 ([129][0][0][0] / 0x0081), 0 channels, fltp
        Stream #0:2[0x842]: Unknown: none ([151][0][0][0] / 0x0097)
      No Program
        Stream #0:3[0x12d]: Unknown: none
        Stream #0:4[0x1224]: Unknown: none
        Stream #0:5[0x1e6f]: Unknown: none
        Stream #0:6[0x1198]: Unknown: none
        Stream #0:7[0x1edc]: Unknown: none
        Stream #0:8[0x501]: Unknown: none
        Stream #0:9[0xe40]: Unknown: none
        Stream #0:10[0x1090]: Unknown: none
        Stream #0:11[0x95c]: Unknown: none
        Stream #0:12[0x2e4]: Unknown: none
        Stream #0:13[0x903]: Audio: mp3, 0 channels
        Stream #0:14[0x59d]: Unknown: none
        Stream #0:15[0x18b9]: Unknown: none
        Stream #0:16[0xd15]: Unknown: none
        Stream #0:17[0x879]: Unknown: none
        Stream #0:18[0x1bd7]: Unknown: none
        Stream #0:19[0x1514]: Unknown: none
        Stream #0:20[0x14f0]: Unknown: none
        Stream #0:21[0x1046]: Audio: mp3, 0 channels
        Stream #0:22[0x1d37]: Unknown: none
        Stream #0:23[0x1380]: Audio: mp3, 0 channels
        Stream #0:24[0x1f77]: Unknown: none
        Stream #0:25[0xc71]: Unknown: none
        Stream #0:26[0x4f2]: Unknown: none
        Stream #0:27[0x1945]: Unknown: none
        Stream #0:28[0x1e09]: Unknown: none
        Stream #0:29[0xffc]: Unknown: none
        Stream #0:30[0x1ba4]: Unknown: none
        Stream #0:31[0x73f]: Unknown: none
        Stream #0:32[0x3b]: Unknown: none
        Stream #0:33[0x1595]: Unknown: none
        Stream #0:34[0x1f11]: Audio: mp3, 0 channels
        Stream #0:35[0x59e]: Unknown: none
        Stream #0:36[0x135]: Unknown: none
        Stream #0:37[0x148e]: Unknown: none
        Stream #0:38[0x8a8]: Unknown: none
        Stream #0:39[0xdaf]: Unknown: none
        Stream #0:40[0x3e4]: Unknown: none
        Stream #0:41[0x1674]: Audio: mp3, 0 channels
        Stream #0:42[0x1fce]: Unknown: none
        Stream #0:43[0x627]: Unknown: none
        Stream #0:44[0xfb7]: Unknown: none
        Stream #0:45[0x1baa]: Unknown: none
        Stream #0:46[0x18b1]: Unknown: none
        Stream #0:47[0x6d1]: Audio: mp3, 0 channels
        Stream #0:48[0x1a57]: Unknown: none
        Stream #0:49[0x11ce]: Unknown: none
        Stream #0:50[0xfb2]: Unknown: none
        Stream #0:51[0x554]: Unknown: none
        Stream #0:52[0x1d1a]: Unknown: none
        Stream #0:53[0x1e7d]: Audio: mp3, 0 channels
        Stream #0:54[0x141e]: Unknown: none
        Stream #0:55[0x18e]: Unknown: none
        Stream #0:56[0x1c4d]: Unknown: none
        Stream #0:57[0x649]: Unknown: none
        Stream #0:58[0x1e6c]: Audio: aac, 0 channels
        Stream #0:59[0x159f]: Unknown: none
        Stream #0:60[0x1570]: Unknown: none
        Stream #0:61[0x1afd]: Unknown: none
        Stream #0:62[0xf9e]: Unknown: none
        Stream #0:63[0x8c1]: Unknown: none
        Stream #0:64[0x1cff]: Unknown: none
        Stream #0:65[0x1b9f]: Audio: mp3, 0 channels
        Stream #0:66[0x108f]: Audio: mp3, 0 channels
        Stream #0:67[0x8e9]: Audio: mp3, 0 channels
        Stream #0:68[0x1a7c]: Unknown: none
        Stream #0:69[0x58c]: Unknown: none
        Stream #0:70[0xdcc]: Unknown: none
        Stream #0:71[0x5de]: Unknown: none
        Stream #0:72[0x1927]: Unknown: none
        Stream #0:73[0x1f29]: Unknown: none
        Stream #0:74[0x15e9]: Unknown: none
        Stream #0:75[0x1920]: Unknown: none
        Stream #0:76[0x1aa1]: Unknown: none
        Stream #0:77[0x1e7e]: Unknown: none
        Stream #0:78[0x1ef6]: Unknown: none
        Stream #0:79[0x1b49]: Unknown: none
        Stream #0:80[0x64a]: Unknown: none
        Stream #0:81[0x1264]: Unknown: none
        Stream #0:82[0x1739]: Unknown: none
        Stream #0:83[0x1d43]: Unknown: none
        Stream #0:84[0x1ea9]: Unknown: none
        Stream #0:85[0x93e]: Unknown: none
        Stream #0:86[0xf74]: Unknown: none
        Stream #0:87[0x1121]: Unknown: none
        Stream #0:88[0x11e1]: Unknown: none
        Stream #0:89[0x6ff]: Unknown: none
        Stream #0:90[0x1e21]: Unknown: none
        Stream #0:91[0x170a]: Unknown: none
        Stream #0:92[0x1555]: Unknown: none
        Stream #0:93[0x124d]: Unknown: none
        Stream #0:94[0x1717]: Unknown: none
        Stream #0:95[0x1830]: Unknown: none
        Stream #0:96[0x1cca]: Unknown: none
        Stream #0:97[0x1c88]: Unknown: none
        Stream #0:98[0x18b3]: Unknown: none
        Stream #0:99[0xbba]: Unknown: none
        Stream #0:100[0x1c81]: Unknown: none
        Stream #0:101[0x139a]: Unknown: none
        Stream #0:102[0xe66]: Unknown: none
        Stream #0:103[0x318]: Unknown: none
        Stream #0:104[0xf37]: Unknown: none
        Stream #0:105[0x659]: Unknown: none
        Stream #0:106[0x19e6]: Unknown: none
        Stream #0:107[0x1cd1]: Unknown: none
        Stream #0:108[0x15e3]: Unknown: none
        Stream #0:109[0xd49]: Unknown: none
        Stream #0:110[0x1f76]: Audio: mp3, 0 channels
        Stream #0:111[0x9d7]: Unknown: none
        Stream #0:112[0x1dd3]: Unknown: none
        Stream #0:113[0x1734]: Unknown: none
        Stream #0:114[0x251]: Unknown: none
        Stream #0:115[0xdcd]: Unknown: none
        Stream #0:116[0x198]: Unknown: none
        Stream #0:117[0xcf6]: Audio: mp3, 0 channels
        Stream #0:118[0x1b3e]: Unknown: none
        Stream #0:119[0x35d]: Unknown: none
        Stream #0:120[0x1490]: Unknown: none
        Stream #0:121[0x1c32]: Unknown: none
        Stream #0:122[0x9a4]: Unknown: none
        Stream #0:123[0xa93]: Unknown: none
        Stream #0:124[0x6fb]: Unknown: none
        Stream #0:125[0xca0]: Unknown: none
        Stream #0:126[0x890]: Audio: mp3, 0 channels
        Stream #0:127[0x1ecf]: Unknown: none
        Stream #0:128[0xeec]: Unknown: none
        Stream #0:129[0x15e2]: Unknown: none
        Stream #0:130[0x1d3f]: Audio: mp3, 0 channels
        Stream #0:131[0x1143]: Unknown: none
        Stream #0:132[0x1ff7]: Unknown: none
        Stream #0:133[0x11f4]: Unknown: none
        Stream #0:134[0x10e0]: Unknown: none
        Stream #0:135[0xf01]: Unknown: none
        Stream #0:136[0x1ae0]: Unknown: none
        Stream #0:137[0x1e7f]: Unknown: none
        Stream #0:138[0x1eb6]: Audio: mp3, 0 channels
        Stream #0:139[0x8d2]: Unknown: none
        Stream #0:140[0x9f1]: Unknown: none
        Stream #0:141[0x1475]: Unknown: none
        Stream #0:142[0x11f5]: Audio: mp3, 0 channels
        Stream #0:143[0x9b2]: Unknown: none
        Stream #0:144[0x178e]: Unknown: none
        Stream #0:145[0x100e]: Unknown: none
        Stream #0:146[0x175d]: Unknown: none
        Stream #0:147[0x1c1a]: Unknown: none
        Stream #0:148[0x173a]: Unknown: none
        Stream #0:149[0x98b]: Unknown: none
        Stream #0:150[0x13e1]: Unknown: none
        Stream #0:151[0x12bd]: Unknown: none
        Stream #0:152[0x12fd]: Audio: mp3, 0 channels
        Stream #0:153[0x1d4c]: Unknown: none
        Stream #0:154[0x1e7b]: Unknown: none
        Stream #0:155[0x11f8]: Unknown: none
        Stream #0:156[0x1d21]: Unknown: none
        Stream #0:157[0x838]: Unknown: none
        Stream #0:158[0x1515]: Unknown: none
        Stream #0:159[0x1ae7]: Unknown: none
        Stream #0:160[0x6de]: Unknown: none
        Stream #0:161[0x1fca]: Unknown: none
        Stream #0:162[0x1dc0]: Unknown: none
        Stream #0:163[0x549]: Unknown: none
        Stream #0:164[0x1aed]: Unknown: none
        Stream #0:165[0x1af9]: Unknown: none
        Stream #0:166[0x1f3f]: Unknown: none
        Stream #0:167[0x177b]: Unknown: none
        Stream #0:168[0x12a1]: Unknown: none
        Stream #0:169[0x8ca]: Unknown: none
        Stream #0:170[0x11d6]: Unknown: none
        Stream #0:171[0x546]: Unknown: none
        Stream #0:172[0x20a]: Unknown: none
        Stream #0:173[0x126d]: Unknown: none
        Stream #0:174[0xf6b]: Unknown: none
        Stream #0:175[0x9a7]: Unknown: none
        Stream #0:176[0x123f]: Unknown: none
        Stream #0:177[0x10e1]: Unknown: none
        Stream #0:178[0x983]: Unknown: none
        Stream #0:179[0x126e]: Unknown: none
        Stream #0:180[0x2c8]: Unknown: none
        Stream #0:181[0xd7c]: Unknown: none
        Stream #0:182[0x1cf4]: Unknown: none
        Stream #0:183[0xac2]: Audio: mp3, 0 channels
        Stream #0:184[0x1e51]: Unknown: none
        Stream #0:185[0x1dd1]: Unknown: none
        Stream #0:186[0x187b]: Unknown: none
        Stream #0:187[0x1e8d]: Unknown: none
        Stream #0:188[0x103b]: Unknown: none
        Stream #0:189[0x1281]: Unknown: none
        Stream #0:190[0x126a]: Unknown: none
        Stream #0:191[0x1754]: Unknown: none
        Stream #0:192[0x1b0c]: Unknown: none
        Stream #0:193[0x99e]: Unknown: none
        Stream #0:194[0x1553]: Unknown: none
        Stream #0:195[0x1faa]: Unknown: none
        Stream #0:196[0x61d]: Unknown: none
        Stream #0:197[0x1df4]: Unknown: none
        Stream #0:198[0x24]: Audio: mp3, 0 channels
        Stream #0:199[0x1c98]: Unknown: none
        Stream #0:200[0x1142]: Unknown: none
        Stream #0:201[0x129e]: Unknown: none
        Stream #0:202[0x36d]: Audio: mp3, 0 channels
        Stream #0:203[0x1e79]: Unknown: none
        Stream #0:204[0x18]: Audio: mp3, 0 channels
        Stream #0:205[0x991]: Unknown: none
        Stream #0:206[0x179f]: Unknown: none
        Stream #0:207[0x5f4]: Unknown: none
        Stream #0:208[0x7c7]: Unknown: none
        Stream #0:209[0x1004]: Unknown: none
        Stream #0:210[0x1965]: Unknown: none
        Stream #0:211[0x120c]: Unknown: none
        Stream #0:212[0x1f9a]: Unknown: none
        Stream #0:213[0xf1b]: Audio: mp3, 0 channels
        Stream #0:214[0x1340]: Unknown: none
        Stream #0:215[0x992]: Unknown: none
        Stream #0:216[0x1aff]: Unknown: none
        Stream #0:217[0x2d]: Unknown: none
        Stream #0:218[0x1729]: Unknown: none
        Stream #0:219[0xb15]: Unknown: none
        Stream #0:220[0x111c]: Unknown: none
        Stream #0:221[0x11a8]: Unknown: none
        Stream #0:222[0x10a0]: Unknown: none
        Stream #0:223[0x1751]: Unknown: none
        Stream #0:224[0x19b1]: Unknown: none
        Stream #0:225[0x1d28]: Unknown: none
        Stream #0:226[0xdc5]: Unknown: none
        Stream #0:227[0x1529]: Unknown: none
        Stream #0:228[0x1e7a]: Unknown: none
        Stream #0:229[0xf00]: Unknown: none
        Stream #0:230[0x1fb6]: Unknown: none
        Stream #0:231[0x1126]: Audio: mp3, 0 channels
        Stream #0:232[0x9b6]: Unknown: none
        Stream #0:233[0x1800]: Unknown: none
        Stream #0:234[0xa2a]: Unknown: none
        Stream #0:235[0x1738]: Unknown: none
        Stream #0:236[0x175e]: Unknown: none
        Stream #0:237[0x1445]: Unknown: none
        Stream #0:238[0xd7b]: Unknown: none
        Stream #0:239[0x1696]: Unknown: none
        Stream #0:240[0x16ae]: Unknown: none
        Stream #0:241[0x1733]: Unknown: none
        Stream #0:242[0x805]: Unknown: none
        Stream #0:243[0x1bba]: Unknown: none
        Stream #0:244[0xc9b]: Unknown: none
        Stream #0:245[0x1346]: Audio: mp3, 0 channels
        Stream #0:246[0x1fd]: Unknown: none
        Stream #0:247[0x128f]: Unknown: none
        Stream #0:248[0x2e0]: Unknown: none
        Stream #0:249[0x1ddd]: Unknown: none
        Stream #0:250[0x1151]: Unknown: none
        Stream #0:251[0x1530]: Unknown: none
        Stream #0:252[0x1d32]: Unknown: none
        Stream #0:253[0x146f]: Unknown: none
        Stream #0:254[0x1bcc]: Unknown: none
        Stream #0:255[0xa7a]: Audio: mp3, 0 channels
        Stream #0:256[0x1bab]: Unknown: none
        Stream #0:257[0x1e63]: Unknown: none
        Stream #0:258[0xcd3]: Unknown: none
        Stream #0:259[0xcf8]: Unknown: none
        Stream #0:260[0x38c]: Unknown: none
        Stream #0:261[0x1907]: Unknown: none
        Stream #0:262[0x1d5d]: Unknown: none
        Stream #0:263[0x1be5]: Unknown: none
        Stream #0:264[0x1e55]: Audio: mp3, 0 channels
        Stream #0:265[0x59f]: Unknown: none
        Stream #0:266[0x29d]: Unknown: none
        Stream #0:267[0x187]: Unknown: none
        Stream #0:268[0x1647]: Unknown: none
        Stream #0:269[0x1da2]: Unknown: none
        Stream #0:270[0xc3c]: Unknown: none
        Stream #0:271[0xc0a]: Unknown: none
        Stream #0:272[0x1551]: Unknown: none
        Stream #0:273[0x1506]: Unknown: none
        Stream #0:274[0xfa4]: Unknown: none
        Stream #0:275[0x1732]: Unknown: none
        Stream #0:276[0x1a12]: Unknown: none
        Stream #0:277[0x67d]: Unknown: none
        Stream #0:278[0x1e36]: Unknown: none
        Stream #0:279[0x1961]: Audio: mp3, 0 channels
        Stream #0:280[0x9ba]: Unknown: none
        Stream #0:281[0x7c4]: Unknown: none
        Stream #0:282[0x1fc6]: Unknown: none
        Stream #0:283[0xef9]: Unknown: none
        Stream #0:284[0x1d6e]: Unknown: none
        Stream #0:285[0x139e]: Unknown: none
        Stream #0:286[0x1b21]: Audio: mp3, 0 channels
        Stream #0:287[0x1123]: Unknown: none
        Stream #0:288[0x87]: Unknown: none
        Stream #0:289[0x19ea]: Unknown: none
        Stream #0:290[0x132e]: Unknown: none
        Stream #0:291[0x7a]: Unknown: none
        Stream #0:292[0x1e85]: Unknown: none
        Stream #0:293[0x1b4d]: Unknown: none
        Stream #0:294[0x1c99]: Unknown: none
        Stream #0:295[0x9d8]: Unknown: none
        Stream #0:296[0x17a1]: Audio: mp3, 0 channels
        Stream #0:297[0x5cd]: Unknown: none
        Stream #0:298[0x1a36]: Audio: mp3, 0 channels
        Stream #0:299[0xe5c]: Unknown: none
        Stream #0:300[0x5bd]: Unknown: none
        Stream #0:301[0x1f9e]: Unknown: none
        Stream #0:302[0x1dc8]: Unknown: none
        Stream #0:303[0x101e]: Unknown: none
        Stream #0:304[0x19c]: Unknown: none
        Stream #0:305[0x1a4d]: Unknown: none
        Stream #0:306[0x5dd]: Audio: mp3, 0 channels
        Stream #0:307[0x1c82]: Unknown: none
        Stream #0:308[0x1638]: Unknown: none
        Stream #0:309[0x18ed]: Unknown: none
        Stream #0:310[0xaf0]: Unknown: none
        Stream #0:311[0x1f80]: Unknown: none
        Stream #0:312[0xc7e]: Unknown: none
        Stream #0:313[0x1577]: Unknown: none
        Stream #0:314[0x56e]: Unknown: none
        Stream #0:315[0x6d4]: Unknown: none
        Stream #0:316[0x524]: Audio: mp3, 0 channels
        Stream #0:317[0x1f32]: Unknown: none
        Stream #0:318[0x288]: Unknown: none
        Stream #0:319[0xcb8]: Unknown: none
        Stream #0:320[0x974]: Unknown: none
        Stream #0:321[0x525]: Unknown: none
        Stream #0:322[0x70e]: Unknown: none
        Stream #0:323[0x1267]: Unknown: none
        Stream #0:324[0x1e3e]: Unknown: none
        Stream #0:325[0x1989]: Unknown: none
        Stream #0:326[0x384]: Unknown: none
        Stream #0:327[0x2eb]: Unknown: none
        Stream #0:328[0x1dfa]: Audio: mp3, 0 channels
        Stream #0:329[0x1b2d]: Unknown: none
        Stream #0:330[0x573]: Unknown: none
        Stream #0:331[0x1e93]: Unknown: none
        Stream #0:332[0x3de]: Unknown: none
        Stream #0:333[0x790]: Unknown: none
        Stream #0:334[0x102]: Unknown: none
        Stream #0:335[0x18a3]: Unknown: none
        Stream #0:336[0x1d1f]: Unknown: none
        Stream #0:337[0x95b]: Unknown: none
        Stream #0:338[0x10f8]: Unknown: none
        Stream #0:339[0x915]: Unknown: none
        Stream #0:340[0x961]: Unknown: none
        Stream #0:341[0x13eb]: Unknown: none
        Stream #0:342[0x354]: Unknown: none
        Stream #0:343[0x1b4e]: Unknown: none
        Stream #0:344[0x1fd0]: Unknown: none
        Stream #0:345[0x1976]: Unknown: none
        Stream #0:346[0x89]: Unknown: none
        Stream #0:347[0xeaf]: Unknown: none
        Stream #0:348[0xd6b]: Unknown: none
        Stream #0:349[0x14d9]: Unknown: none
        Stream #0:350[0x137c]: Unknown: none
        Stream #0:351[0x1265]: Unknown: none
        Stream #0:352[0x1c4c]: Unknown: none
        Stream #0:353[0xac1]: Unknown: none
        Stream #0:354[0x4dc]: Unknown: none
        Stream #0:355[0x115b]: Unknown: none
        Stream #0:356[0x1d1]: Unknown: none
        Stream #0:357[0xf64]: Unknown: none
        Stream #0:358[0xb1f]: Unknown: none
        Stream #0:359[0xb88]: Unknown: none
        Stream #0:360[0x177]: Unknown: none
        Stream #0:361[0xe98]: Unknown: none
        Stream #0:362[0x1691]: Unknown: none
        Stream #0:363[0x1190]: Unknown: none
        Stream #0:364[0xee4]: Unknown: none
        Stream #0:365[0xfee]: Unknown: none
        Stream #0:366[0x195d]: Unknown: none
        Stream #0:367[0x27]: Unknown: none
        Stream #0:368[0x1eb9]: Unknown: none
        Stream #0:369[0x1a4a]: Unknown: none
        Stream #0:370[0x188b]: Audio: mp3, 0 channels
        Stream #0:371[0xc4e]: Unknown: none
        Stream #0:372[0x1a8c]: Unknown: none
        Stream #0:373[0x16bb]: Unknown: none
        Stream #0:374[0x1f4a]: Unknown: none
        Stream #0:375[0x9b3]: Unknown: none
        Stream #0:376[0xaf4]: Unknown: none
        Stream #0:377[0x1552]: Unknown: none
        Stream #0:378[0x18d9]: Unknown: none
        Stream #0:379[0x1269]: Unknown: none
        Stream #0:380[0x1777]: Unknown: none
        Stream #0:381[0x1bd]: Unknown: none
        Stream #0:382[0x8f1]: Unknown: none
        Stream #0:383[0x6f]: Unknown: none
        Stream #0:384[0x1cbf]: Unknown: none
        Stream #0:385[0x164]: Unknown: none
        Stream #0:386[0x7d]: Unknown: none
        Stream #0:387[0x75e]: Audio: aac, 0 channels
        Stream #0:388[0x1a6a]: Unknown: none
        Stream #0:389[0x1aa4]: Unknown: none
        Stream #0:390[0x58a]: Unknown: none
        Stream #0:391[0x6f1]: Unknown: none
        Stream #0:392[0x10c4]: Unknown: none
        Stream #0:393[0x8d]: Unknown: none
        Stream #0:394[0xc1a]: Unknown: none
        Stream #0:395[0x10a1]: Unknown: none
        Stream #0:396[0x12aa]: Unknown: none
        Stream #0:397[0x1a67]: Unknown: none
        Stream #0:398[0xc9d]: Unknown: none
        Stream #0:399[0x72c]: Audio: mp3, 0 channels
        Stream #0:400[0x1c07]: Unknown: none
        Stream #0:401[0x1a10]: Audio: mp3, 0 channels
        Stream #0:402[0x168b]: Unknown: none
        Stream #0:403[0x89b]: Unknown: none
        Stream #0:404[0x5a3]: Unknown: none
        Stream #0:405[0x1fad]: Unknown: none
        Stream #0:406[0xdb6]: Unknown: none
        Stream #0:407[0x1772]: Unknown: none
        Stream #0:408[0x1407]: Unknown: none
        Stream #0:409[0x1cb4]: Unknown: none
        Stream #0:410[0x1c91]: Unknown: none
        Stream #0:411[0x1db7]: Unknown: none
        Stream #0:412[0x952]: Unknown: none
        Stream #0:413[0x2a8]: Unknown: none
        Stream #0:414[0x1393]: Unknown: none
        Stream #0:415[0xf17]: Unknown: none
        Stream #0:416[0x1dbe]: Unknown: none
        Stream #0:417[0x4eb]: Unknown: none
        Stream #0:418[0x1df9]: Unknown: none
        Stream #0:419[0x1e01]: Unknown: none
        Stream #0:420[0x4cc]: Unknown: none
        Stream #0:421[0x1200]: Unknown: none
        Stream #0:422[0x1b3a]: Unknown: none
        Stream #0:423[0x26a]: Unknown: none
        Stream #0:424[0xfd1]: Unknown: none
        Stream #0:425[0x18fa]: Unknown: none
        Stream #0:426[0x4cb]: Unknown: none
        Stream #0:427[0x1ca6]: Unknown: none
        Stream #0:428[0x1574]: Unknown: none
        Stream #0:429[0x1c1c]: Unknown: none
        Stream #0:430[0x4c5]: Unknown: none
        Stream #0:431[0x111a]: Unknown: none
        Stream #0:432[0x1bb]: Unknown: none
        Stream #0:433[0x1a66]: Unknown: none
        Stream #0:434[0x1ff9]: Unknown: none
        Stream #0:435[0x4f5]: Unknown: none
        Stream #0:436[0x1d7]: Unknown: none
        Stream #0:437[0x7dd]: Audio: mp3, 0 channels
        Stream #0:438[0x862]: Unknown: none
        Stream #0:439[0x7e2]: Unknown: none
        Stream #0:440[0x9bf]: Unknown: none
        Stream #0:441[0x439]: Unknown: none
        Stream #0:442[0x1767]: Audio: aac, 0 channels
        Stream #0:443[0x568]: Unknown: none
        Stream #0:444[0x198f]: Unknown: none
        Stream #0:445[0xf02]: Unknown: none
        Stream #0:446[0xc65]: Unknown: none
        Stream #0:447[0x1888]: Unknown: none
        Stream #0:448[0x1460]: Unknown: none
        Stream #0:449[0x104f]: Unknown: none
        Stream #0:450[0x1af1]: Audio: mp3, 0 channels
        Stream #0:451[0x3ae]: Unknown: none
        Stream #0:452[0x11b7]: Unknown: none
        Stream #0:453[0xf8f]: Unknown: none
        Stream #0:454[0x1d8e]: Unknown: none
        Stream #0:455[0x14b8]: Unknown: none
        Stream #0:456[0x1d24]: Unknown: none
        Stream #0:457[0x14fe]: Unknown: none
        Stream #0:458[0x1396]: Unknown: none
        Stream #0:459[0xd]: Audio: mp3, 0 channels
        Stream #0:460[0x1425]: Unknown: none
        Stream #0:461[0x11b5]: Unknown: none
        Stream #0:462[0x19e4]: Unknown: none
        Stream #0:463[0x4fd]: Unknown: none
        Stream #0:464[0x3bc]: Unknown: none
        Stream #0:465[0x1f57]: Unknown: none
        Stream #0:466[0x1d36]: Unknown: none
        Stream #0:467[0x12ff]: Audio: mp3, 0 channels
        Stream #0:468[0x11fe]: Audio: mp3, 0 channels
        Stream #0:469[0x1a]: Audio: mp3, 0 channels
        Stream #0:470[0x1560]: Unknown: none
        Stream #0:471[0x13ae]: Unknown: none
        Stream #0:472[0x156d]: Unknown: none
        Stream #0:473[0x13ea]: Unknown: none
        Stream #0:474[0xfbb]: Audio: aac, 0 channels
        Stream #0:475[0x104d]: Unknown: none
        Stream #0:476[0x89f]: Unknown: none
        Stream #0:477[0x1a61]: Unknown: none
        Stream #0:478[0x1b01]: Unknown: none
        Stream #0:479[0x440]: Audio: aac, 0 channels
        Stream #0:480[0x1348]: Audio: aac, 0 channels
        Stream #0:481[0x1be6]: Unknown: none
        Stream #0:482[0x1793]: Unknown: none
        Stream #0:483[0x12c0]: Unknown: none
        Stream #0:484[0x182b]: Unknown: none
        Stream #0:485[0x15c8]: Unknown: none
        Stream #0:486[0x13f5]: Unknown: none
        Stream #0:487[0xf4]: Audio: aac, 0 channels
        Stream #0:488[0x1680]: Unknown: none
        Stream #0:489[0x1d03]: Audio: mp3, 0 channels
        Stream #0:490[0x1c0a]: Unknown: none
        Stream #0:491[0x1c6a]: Unknown: none
        Stream #0:492[0xc38]: Unknown: none
        Stream #0:493[0x57e]: Unknown: none
        Stream #0:494[0x1b13]: Unknown: none
        Stream #0:495[0x1c03]: Unknown: none
        Stream #0:496[0x1f60]: Unknown: none
        Stream #0:497[0xb55]: Unknown: none
        Stream #0:498[0x138a]: Unknown: none
        Stream #0:499[0xca9]: Unknown: none
        Stream #0:500[0x1326]: Audio: mp3, 0 channels
        Stream #0:501[0x1ab0]: Unknown: none
        Stream #0:502[0x154a]: Unknown: none
        Stream #0:503[0xc13]: Unknown: none
        Stream #0:504[0x111]: Unknown: none
        Stream #0:505[0x106f]: Unknown: none
        Stream #0:506[0x174]: Audio: aac, 0 channels
        Stream #0:507[0x1f63]: Unknown: none
        Stream #0:508[0x1cae]: Unknown: none
        Stream #0:509[0x1fa3]: Audio: mp3, 0 channels
        Stream #0:510[0x69e]: Unknown: none
        Stream #0:511[0xb86]: Unknown: none
        Stream #0:512[0x84]: Unknown: none
        Stream #0:513[0x108b]: Audio: aac, 0 channels
        Stream #0:514[0x15c0]: Unknown: none
        Stream #0:515[0x10cc]: Unknown: none
        Stream #0:516[0x15fa]: Unknown: none
        Stream #0:517[0xd55]: Unknown: none
        Stream #0:518[0x403]: Unknown: none
        Stream #0:519[0x1935]: Unknown: none
        Stream #0:520[0x139d]: Unknown: none
        Stream #0:521[0x1dce]: Unknown: none
        Stream #0:522[0x1f1d]: Unknown: none
        Stream #0:523[0x9fe]: Unknown: none
        Stream #0:524[0x1439]: Unknown: none
        Stream #0:525[0x595]: Unknown: none
        Stream #0:526[0x1fa1]: Unknown: none
        Stream #0:527[0x9a5]: Unknown: none
        Stream #0:528[0x178a]: Unknown: none
        Stream #0:529[0x11ef]: Unknown: none
        Stream #0:530[0xccb]: Unknown: none
        Stream #0:531[0x1e2d]: Unknown: none
        Stream #0:532[0x1a9]: Unknown: none
        Stream #0:533[0x99a]: Unknown: none
        Stream #0:534[0x4a5]: Unknown: none
        Stream #0:535[0x1805]: Unknown: none
        Stream #0:536[0x1a7]: Unknown: none
        Stream #0:537[0x778]: Audio: mp3, 0 channels
        Stream #0:538[0x188c]: Audio: mp3, 0 channels
        Stream #0:539[0x11c1]: Unknown: none
        Stream #0:540[0x13da]: Unknown: none
        Stream #0:541[0x81c]: Unknown: none
        Stream #0:542[0x1670]: Unknown: none
        Stream #0:543[0x803]: Unknown: none
        Stream #0:544[0x148a]: Unknown: none
        Stream #0:545[0x1df8]: Unknown: none
        Stream #0:546[0x5f9]: Unknown: none
        Stream #0:547[0x1d56]: Unknown: none
        Stream #0:548[0x1735]: Unknown: none
        Stream #0:549[0x4cf]: Audio: mp3, 0 channels
        Stream #0:550[0x1533]: Unknown: none
        Stream #0:551[0x1ee0]: Audio: aac, 0 channels
        Stream #0:552[0x508]: Unknown: none
        Stream #0:553[0x1462]: Unknown: none
        Stream #0:554[0x5fb]: Unknown: none
        Stream #0:555[0x19fc]: Unknown: none
        Stream #0:556[0xe22]: Unknown: none
        Stream #0:557[0x668]: Unknown: none
        Stream #0:558[0x108d]: Unknown: none
        Stream #0:559[0x1450]: Unknown: none
        Stream #0:560[0xb49]: Unknown: none
        Stream #0:561[0x591]: Audio: mp3, 0 channels
        Stream #0:562[0xb01]: Audio: mp3, 0 channels
        Stream #0:563[0x11f1]: Unknown: none
        Stream #0:564[0x325]: Unknown: none
        Stream #0:565[0x1c57]: Unknown: none
        Stream #0:566[0x405]: Unknown: none
        Stream #0:567[0x1b5]: Unknown: none
        Stream #0:568[0x1d69]: Unknown: none
        Stream #0:569[0xa6f]: Unknown: none
        Stream #0:570[0xa8c]: Unknown: none
        Stream #0:571[0x1376]: Unknown: none
        Stream #0:572[0x11d1]: Unknown: none
        Stream #0:573[0x19f7]: Unknown: none
        Stream #0:574[0x274]: Unknown: none
        Stream #0:575[0x6e1]: Unknown: none
        Stream #0:576[0xfde]: Unknown: none
        Stream #0:577[0x1d0f]: Unknown: none
        Stream #0:578[0x18db]: Unknown: none
        Stream #0:579[0x81f]: Unknown: none
        Stream #0:580[0x1de9]: Unknown: none
        Stream #0:581[0x1795]: Audio: aac, 0 channels
        Stream #0:582[0x1aa9]: Unknown: none
        Stream #0:583[0x680]: Unknown: none
        Stream #0:584[0xf3d]: Unknown: none
        Stream #0:585[0x110]: Unknown: none
        Stream #0:586[0x51d]: Unknown: none
        Stream #0:587[0x924]: Unknown: none
        Stream #0:588[0x48d]: Unknown: none
        Stream #0:589[0x7bd]: Unknown: none
        Stream #0:590[0x1e65]: Audio: mp3, 0 channels
        Stream #0:591[0x1a17]: Unknown: none
        Stream #0:592[0x1d50]: Unknown: none
        Stream #0:593[0x1eca]: Unknown: none
        Stream #0:594[0xacf]: Unknown: none
        Stream #0:595[0xd24]: Unknown: none
        Stream #0:596[0x1b1]: Unknown: none
        Stream #0:597[0x12a]: Unknown: none
        Stream #0:598[0x1eaa]: Unknown: none
        Stream #0:599[0xdda]: Unknown: none
        Stream #0:600[0x749]: Unknown: none
        Stream #0:601[0x6f5]: Unknown: none
        Stream #0:602[0x5d6]: Unknown: none
        Stream #0:603[0x81d]: Unknown: none
        Stream #0:604[0x1d55]: Unknown: none
        Stream #0:605[0x1e80]: Unknown: none
        Stream #0:606[0x1dfd]: Unknown: none
        Stream #0:607[0x1bea]: Unknown: none
        Stream #0:608[0x42c]: Audio: mp3, 0 channels
        Stream #0:609[0x1f9f]: Unknown: none
        Stream #0:610[0x4e9]: Unknown: none
        Stream #0:611[0x892]: Unknown: none
        Stream #0:612[0x91d]: Audio: mp3, 0 channels
        Stream #0:613[0x12a7]: Unknown: none
        Stream #0:614[0x39]: Unknown: none
        Stream #0:615[0xf1d]: Unknown: none
        Stream #0:616[0x4c3]: Unknown: none
        Stream #0:617[0x1863]: Unknown: none
        Stream #0:618[0x10ab]: Unknown: none
        Stream #0:619[0x1dd7]: Unknown: none
        Stream #0:620[0x1b3d]: Unknown: none
        Stream #0:621[0xbe8]: Unknown: none
        Stream #0:622[0xbdf]: Unknown: none
        Stream #0:623[0x1e57]: Unknown: none
        Stream #0:624[0x176e]: Unknown: none
        Stream #0:625[0x18c9]: Unknown: none
        Stream #0:626[0x407]: Audio: mp3, 0 channels
        Stream #0:627[0x2f1]: Unknown: none
        Stream #0:628[0x1e29]: Unknown: none
        Stream #0:629[0x1d47]: Unknown: none
        Stream #0:630[0x741]: Unknown: none
        Stream #0:631[0xd32]: Unknown: none
        Stream #0:632[0x5e6]: Unknown: none
        Stream #0:633[0x4c4]: Unknown: none
        Stream #0:634[0x1f1b]: Unknown: none
        Stream #0:635[0x1c80]: Unknown: none
        Stream #0:636[0x1334]: Unknown: none
        Stream #0:637[0x4ac]: Unknown: none
        Stream #0:638[0x1478]: Unknown: none
        Stream #0:639[0x735]: Unknown: none
        Stream #0:640[0x5a]: Unknown: none
        Stream #0:641[0x46c]: Unknown: none
        Stream #0:642[0x115d]: Unknown: none
        Stream #0:643[0x3e1]: Unknown: none
        Stream #0:644[0x1b6f]: Unknown: none
        Stream #0:645[0xe01]: Unknown: none
        Stream #0:646[0x1eae]: Unknown: none
        Stream #0:647[0x3cb]: Unknown: none
        Stream #0:648[0x397]: Unknown: none
        Stream #0:649[0xa79]: Unknown: none
        Stream #0:650[0x6e]: Unknown: none
        Stream #0:651[0x16a3]: Unknown: none
        Stream #0:652[0x1f7a]: Unknown: none
        Stream #0:653[0x71d]: Unknown: none
        Stream #0:654[0x1774]: Unknown: none
        Stream #0:655[0x8bc]: Unknown: none
        Stream #0:656[0xa03]: Unknown: none
        Stream #0:657[0x16cb]: Unknown: none
        Stream #0:658[0x1ad9]: Unknown: none
        Stream #0:659[0x116d]: Unknown: none
        Stream #0:660[0x1c3a]: Unknown: none
        Stream #0:661[0x1561]: Unknown: none
        Stream #0:662[0x1451]: Unknown: none
        Stream #0:663[0x7da]: Unknown: none
        Stream #0:664[0x1f42]: Unknown: none
        Stream #0:665[0x10a9]: Unknown: none
        Stream #0:666[0x9b1]: Unknown: none
        Stream #0:667[0x171b]: Unknown: none
        Stream #0:668[0x1bb5]: Unknown: none
        Stream #0:669[0x1197]: Unknown: none
        Stream #0:670[0x1b87]: Unknown: none
        Stream #0:671[0x409]: Unknown: none
        Stream #0:672[0xd6e]: Unknown: none
        Stream #0:673[0x1268]: Audio: aac, 0 channels
        Stream #0:674[0xf87]: Unknown: none
        Stream #0:675[0x1cc1]: Unknown: none
        Stream #0:676[0xa35]: Unknown: none
        Stream #0:677[0x37]: Unknown: none
        Stream #0:678[0xff3]: Unknown: none
        Stream #0:679[0x579]: Unknown: none
        Stream #0:680[0xe76]: Unknown: none
        Stream #0:681[0x901]: Unknown: none
        Stream #0:682[0x1d76]: Unknown: none
        Stream #0:683[0x1def]: Unknown: none
        Stream #0:684[0x82c]: Unknown: none
        Stream #0:685[0x7fa]: Unknown: none
        Stream #0:686[0x77c]: Unknown: none
        Stream #0:687[0x151]: Unknown: none
        Stream #0:688[0x1f6f]: Unknown: none
        Stream #0:689[0x1386]: Unknown: none
        Stream #0:690[0x1c0d]: Unknown: none
        Stream #0:691[0xaa9]: Unknown: none
        Stream #0:692[0x1d66]: Unknown: none
        Stream #0:693[0xa22]: Unknown: none
        Stream #0:694[0x180e]: Unknown: none
        Stream #0:695[0x1a3a]: Unknown: none
        Stream #0:696[0x8a7]: Unknown: none
        Stream #0:697[0x124e]: Unknown: none
        Stream #0:698[0x990]: Unknown: none
        Stream #0:699[0x1955]: Unknown: none
        Stream #0:700[0x6c]: Unknown: none
        Stream #0:701[0x1501]: Unknown: none
        Stream #0:702[0x1779]: Unknown: none
        Stream #0:703[0x171a]: Unknown: none
        Stream #0:704[0xaaa]: Unknown: none
        Stream #0:705[0xb3c]: Audio: mp3, 0 channels
        Stream #0:706[0x15f3]: Audio: mp3, 0 channels
        Stream #0:707[0x1dec]: Unknown: none
        Stream #0:708[0xe84]: Unknown: none
        Stream #0:709[0x1804]: Unknown: none
        Stream #0:710[0xacd]: Unknown: none
        Stream #0:711[0x845]: Unknown: none
        Stream #0:712[0x1855]: Unknown: none
        Stream #0:713[0x6ca]: Unknown: none
        Stream #0:714[0x1c55]: Audio: mp3, 0 channels
        Stream #0:715[0x957]: Unknown: none
        Stream #0:716[0xd61]: Unknown: none
        Stream #0:717[0xec5]: Unknown: none
        Stream #0:718[0x1880]: Unknown: none
        Stream #0:719[0x7ee]: Unknown: none
        Stream #0:720[0x1d7d]: Unknown: none
        Stream #0:721[0xf9d]: Unknown: none
        Stream #0:722[0x10d9]: Unknown: none
        Stream #0:723[0xe61]: Unknown: none
        Stream #0:724[0x1ae]: Unknown: none
        Stream #0:725[0xe4f]: Unknown: none
        Stream #0:726[0x18e1]: Unknown: none
        Stream #0:727[0x787]: Unknown: none
        Stream #0:728[0x6c8]: Unknown: none
        Stream #0:729[0x551]: Unknown: none
        Stream #0:730[0x8a9]: Unknown: none
        Stream #0:731[0x53f]: Unknown: none
        Stream #0:732[0x59c]: Unknown: none
        Stream #0:733[0xff5]: Unknown: none
        Stream #0:734[0xed0]: Unknown: none
        Stream #0:735[0x1e7c]: Unknown: none
        Stream #0:736[0x6f4]: Unknown: none
        Stream #0:737[0x97a]: Unknown: none
        Stream #0:738[0x1a49]: Audio: mp3, 0 channels
        Stream #0:739[0x1351]: Unknown: none
        Stream #0:740[0xa13]: Unknown: none
        Stream #0:741[0xf4f]: Unknown: none
        Stream #0:742[0x196a]: Unknown: none
        Stream #0:743[0x232]: Unknown: none
        Stream #0:744[0x1ba9]: Unknown: none
        Stream #0:745[0xab0]: Unknown: none
        Stream #0:746[0xfc7]: Audio: aac, 0 channels
        Stream #0:747[0x181b]: Unknown: none
        Stream #0:748[0x101b]: Unknown: none
        Stream #0:749[0x99]: Unknown: none
        Stream #0:750[0x1e0f]: Unknown: none
        Stream #0:751[0x1000]: Unknown: none
        Stream #0:752[0x1f91]: Unknown: none
        Stream #0:753[0xac9]: Unknown: none
        Stream #0:754[0x91]: Audio: mp3, 0 channels
        Stream #0:755[0x108]: Unknown: none
        Stream #0:756[0xecb]: Unknown: none
        Stream #0:757[0x70b]: Unknown: none
        Stream #0:758[0x19d4]: Unknown: none
        Stream #0:759[0x257]: Unknown: none
        Stream #0:760[0x1b79]: Unknown: none
        Stream #0:761[0x1a7b]: Unknown: none
        Stream #0:762[0x1854]: Unknown: none
        Stream #0:763[0x12f4]: Unknown: none
        Stream #0:764[0x7c6]: Unknown: none
        Stream #0:765[0x88a]: Unknown: none
        Stream #0:766[0xe86]: Unknown: none
        Stream #0:767[0x629]: Unknown: none
        Stream #0:768[0x180f]: Unknown: none
        Stream #0:769[0x1d34]: Unknown: none
        Stream #0:770[0xd19]: Unknown: none
        Stream #0:771[0x1141]: Unknown: none
        Stream #0:772[0x927]: Unknown: none
        Stream #0:773[0x190f]: Unknown: none
        Stream #0:774[0x1ccd]: Unknown: none
        Stream #0:775[0x419]: Unknown: none
        Stream #0:776[0xe46]: Unknown: none
        Stream #0:777[0x3d1]: Unknown: none
        Stream #0:778[0x57]: Unknown: none
        Stream #0:779[0x7c8]: Unknown: none
        Stream #0:780[0x10a5]: Audio: mp3, 0 channels
        Stream #0:781[0xddc]: Unknown: none
        Stream #0:782[0x1d12]: Unknown: none
        Stream #0:783[0x2f]: Unknown: none
        Stream #0:784[0x1168]: Unknown: none
        Stream #0:785[0x6bb]: Unknown: none
        Stream #0:786[0x5be]: Unknown: none
        Stream #0:787[0xd34]: Unknown: none
        Stream #0:788[0x1a65]: Unknown: none
        Stream #0:789[0xc36]: Unknown: none
        Stream #0:790[0x1df1]: Unknown: none
        Stream #0:791[0x1ce8]: Unknown: none
        Stream #0:792[0x1bb9]: Audio: mp3, 0 channels
        Stream #0:793[0xd41]: Unknown: none
        Stream #0:794[0x936]: Unknown: none
        Stream #0:795[0xaea]: Unknown: none
        Stream #0:796[0x654]: Unknown: none
        Stream #0:797[0x1dd4]: Unknown: none
        Stream #0:798[0x12c1]: Unknown: none
        Stream #0:799[0x73a]: Unknown: none
        Stream #0:800[0x601]: Unknown: none
        Stream #0:801[0x57d]: Unknown: none
        Stream #0:802[0x734]: Unknown: none
        Stream #0:803[0x1677]: Unknown: none
        Stream #0:804[0x1a58]: Unknown: none
        Stream #0:805[0x284]: Unknown: none
        Stream #0:806[0xbc0]: Unknown: none
        Stream #0:807[0x1a73]: Audio: mp3, 0 channels
        Stream #0:808[0x1afc]: Unknown: none
        Stream #0:809[0x1648]: Unknown: none
        Stream #0:810[0x1191]: Audio: mp3, 0 channels
        Stream #0:811[0x153d]: Unknown: none
        Stream #0:812[0x1236]: Unknown: none
        Stream #0:813[0x167c]: Unknown: none
        Stream #0:814[0x31e]: Unknown: none
        Stream #0:815[0x1692]: Unknown: none
        Stream #0:816[0x540]: Unknown: none
        Stream #0:817[0x491]: Unknown: none
        Stream #0:818[0xc87]: Unknown: none
        Stream #0:819[0x14bb]: Audio: mp3, 0 channels
        Stream #0:820[0xa3e]: Unknown: none
        Stream #0:821[0x600]: Audio: mp3, 0 channels
        Stream #0:822[0x1021]: Unknown: none
        Stream #0:823[0xda4]: Unknown: none
        Stream #0:824[0x119a]: Unknown: none
        Stream #0:825[0x9cd]: Unknown: none
        Stream #0:826[0xad9]: Unknown: none
        Stream #0:827[0x1776]: Unknown: none
        Stream #0:828[0xd5c]: Unknown: none
        Stream #0:829[0x9b9]: Unknown: none
        Stream #0:830[0x1efc]: Unknown: none
        Stream #0:831[0xcdb]: Unknown: none
        Stream #0:832[0x1f55]: Unknown: none
        Stream #0:833[0x86f]: Unknown: none
        Stream #0:834[0x143a]: Unknown: none
        Stream #0:835[0xa0e]: Unknown: none
        Stream #0:836[0x1702]: Unknown: none
        Stream #0:837[0x3d0]: Unknown: none
        Stream #0:838[0x1b5a]: Unknown: none
        Stream #0:839[0x1e31]: Unknown: none
        Stream #0:840[0x1995]: Unknown: none
        Stream #0:841[0x1c02]: Unknown: none
        Stream #0:842[0x7e8]: Unknown: none
        Stream #0:843[0x3e9]: Unknown: none
        Stream #0:844[0x192b]: Audio: aac, 0 channels
        Stream #0:845[0x18eb]: Unknown: none
        Stream #0:846[0xa01]: Unknown: none
        Stream #0:847[0x134d]: Audio: mp3, 0 channels
        Stream #0:848[0x343]: Audio: aac, 0 channels
        Stream #0:849[0x139c]: Unknown: none
        Stream #0:850[0x1706]: Unknown: none
        Stream #0:851[0x1de5]: Unknown: none
        Stream #0:852[0xc02]: Unknown: none
        Stream #0:853[0x1bc8]: Unknown: none
        Stream #0:854[0xa8]: Unknown: none
        Stream #0:855[0x1541]: Unknown: none
        Stream #0:856[0xdc7]: Audio: mp3, 0 channels
        Stream #0:857[0x1d9d]: Unknown: none
        Stream #0:858[0x6b7]: Unknown: none
        Stream #0:859[0x29a]: Unknown: none
        Stream #0:860[0x9ca]: Unknown: none
        Stream #0:861[0x1c52]: Unknown: none
        Stream #0:862[0x13fa]: Unknown: none
        Stream #0:863[0x1c5c]: Unknown: none
        Stream #0:864[0x6fe]: Unknown: none
        Stream #0:865[0xd51]: Unknown: none
        Stream #0:866[0x1f38]: Unknown: none
        Stream #0:867[0x1dc6]: Unknown: none
        Stream #0:868[0x5dc]: Unknown: none
        Stream #0:869[0x101a]: Unknown: none
        Stream #0:870[0x40f]: Unknown: none
        Stream #0:871[0x1f08]: Unknown: none
        Stream #0:872[0x1592]: Unknown: none
        Stream #0:873[0x949]: Unknown: none
        Stream #0:874[0x865]: Unknown: none
        Stream #0:875[0x14f5]: Unknown: none
        Stream #0:876[0x4b4]: Unknown: none
        Stream #0:877[0x681]: Unknown: none
        Stream #0:878[0xe78]: Unknown: none
        Stream #0:879[0xbbb]: Unknown: none
        Stream #0:880[0x1e4d]: Unknown: none
        Stream #0:881[0x360]: Unknown: none
        Stream #0:882[0x4d8]: Unknown: none
        Stream #0:883[0x9eb]: Unknown: none
        Stream #0:884[0x1af5]: Unknown: none
        Stream #0:885[0x1e38]: Audio: mp3, 0 channels
        Stream #0:886[0x151a]: Unknown: none
        Stream #0:887[0x117e]: Unknown: none
        Stream #0:888[0x1fb4]: Audio: mp3, 0 channels
        Stream #0:889[0x1513]: Unknown: none
        Stream #0:890[0x1dee]: Unknown: none
        Stream #0:891[0x52]: Unknown: none
        Stream #0:892[0x74]: Unknown: none
        Stream #0:893[0x1e91]: Audio: mp3, 0 channels
        Stream #0:894[0x751]: Unknown: none
        Stream #0:895[0x1426]: Unknown: none
        Stream #0:896[0x8e7]: Unknown: none
        Stream #0:897[0x17a4]: Unknown: none
        Stream #0:898[0x15d2]: Unknown: none
        Stream #0:899[0x1b3f]: Unknown: none
        Stream #0:900[0x8b9]: Unknown: none
        Stream #0:901[0x1b9]: Unknown: none
        Stream #0:902[0x84d]: Unknown: none
        Stream #0:903[0x934]: Unknown: none
        Stream #0:904[0x114c]: Audio: aac, 0 channels
        Stream #0:905[0x139]: Unknown: none
        Stream #0:906[0x1479]: Unknown: none
        Stream #0:907[0x1d01]: Unknown: none
        Stream #0:908[0x65a]: Unknown: none
        Stream #0:909[0x1c1b]: Unknown: none
        Stream #0:910[0x427]: Unknown: none
        Stream #0:911[0x1f88]: Unknown: none
        Stream #0:912[0x1964]: Unknown: none
        Stream #0:913[0x1937]: Unknown: none
        Stream #0:914[0xa17]: Unknown: none
        Stream #0:915[0x1fc4]: Unknown: none
        Stream #0:916[0x1fd1]: Audio: aac, 0 channels
        Stream #0:917[0xbf9]: Unknown: none
        Stream #0:918[0x1ae3]: Unknown: none
        Stream #0:919[0x1171]: Unknown: none
        Stream #0:920[0x1119]: Unknown: none
        Stream #0:921[0x1102]: Unknown: none
        Stream #0:922[0x1f44]: Unknown: none
        Stream #0:923[0x298]: Audio: aac, 0 channels
        Stream #0:924[0x1b09]: Unknown: none
        Stream #0:925[0x1876]: Unknown: none
        Stream #0:926[0xbaa]: Audio: aac, 0 channels
        Stream #0:927[0xc43]: Unknown: none
        Stream #0:928[0x1e35]: Unknown: none
        Stream #0:929[0x9e6]: Unknown: none
        Stream #0:930[0x12c4]: Unknown: none
        Stream #0:931[0x17d0]: Unknown: none
        Stream #0:932[0x1f04]: Unknown: none
        Stream #0:933[0x1bb8]: Unknown: none
        Stream #0:934[0x157b]: Unknown: none
        Stream #0:935[0x1737]: Unknown: none
        Stream #0:936[0x2e]: Unknown: none
        Stream #0:937[0x7c]: Unknown: none
        Stream #0:938[0x185]: Audio: mp3, 0 channels
        Stream #0:939[0xcb1]: Unknown: none
        Stream #0:940[0x12be]: Unknown: none
        Stream #0:941[0xbd3]: Unknown: none
        Stream #0:942[0x1819]: Unknown: none
        Stream #0:943[0x18d7]: Unknown: none
        Stream #0:944[0x1726]: Unknown: none
        Stream #0:945[0x1fc1]: Unknown: none
        Stream #0:946[0x400]: Unknown: none
        Stream #0:947[0x3d9]: Unknown: none
        Stream #0:948[0x1f61]: Audio: mp3, 0 channels
        Stream #0:949[0x98]: Unknown: none
        Stream #0:950[0x58]: Audio: mp3, 0 channels
        Stream #0:951[0x1b57]: Unknown: none
        Stream #0:952[0x1f40]: Audio: mp3, 0 channels
        Stream #0:953[0x1ba5]: Unknown: none
        Stream #0:954[0x1d38]: Unknown: none
        Stream #0:955[0x1e32]: Unknown: none
        Stream #0:956[0x1152]: Unknown: none
        Stream #0:957[0x16f3]: Unknown: none
        Stream #0:958[0x16eb]: Unknown: none
        Stream #0:959[0x1fe6]: Unknown: none
        Stream #0:960[0x953]: Audio: mp3, 0 channels
        Stream #0:961[0x3b8]: Unknown: none
        Stream #0:962[0x755]: Unknown: none
        Stream #0:963[0x481]: Unknown: none
        Stream #0:964[0xc2e]: Unknown: none
        Stream #0:965[0x855]: Unknown: none
        Stream #0:966[0x3e6]: Unknown: none
        Stream #0:967[0x1f66]: Unknown: none
        Stream #0:968[0x1b03]: Audio: aac, 0 channels
        Stream #0:969[0x1e3a]: Unknown: none
        Stream #0:970[0x1b30]: Unknown: none
        Stream #0:971[0x78e]: Unknown: none
        Stream #0:972[0x1820]: Unknown: none
        Stream #0:973[0x1823]: Unknown: none
        Stream #0:974[0x1bbd]: Unknown: none
        Stream #0:975[0x13f4]: Unknown: none
        Stream #0:976[0x1f73]: Unknown: none
        Stream #0:977[0x1521]: Unknown: none
        Stream #0:978[0x1ced]: Unknown: none
        Stream #0:979[0x1724]: Unknown: none
        Stream #0:980[0x1290]: Unknown: none
        Stream #0:981[0x56a]: Unknown: none
        Stream #0:982[0x1ae9]: Unknown: none
        Stream #0:983[0x1d1e]: Unknown: none
        Stream #0:984[0x685]: Unknown: none
        Stream #0:985[0x16d7]: Unknown: none
        Stream #0:986[0x17bc]: Audio: mp3, 0 channels
        Stream #0:987[0xea9]: Unknown: none
        Stream #0:988[0x1690]: Unknown: none
        Stream #0:989[0x1bd1]: Unknown: none
        Stream #0:990[0x1d5]: Unknown: none
        Stream #0:991[0x110c]: Unknown: none
        Stream #0:992[0x293]: Unknown: none
        Stream #0:993[0x196c]: Unknown: none
        Stream #0:994[0x12bb]: Unknown: none
        Stream #0:995[0x84a]: Unknown: none
        Stream #0:996[0x1a2]: Unknown: none
        Stream #0:997[0x179c]: Audio: mp3, 0 channels
        Stream #0:998[0x1eb5]: Unknown: none
        Stream #0:999[0x1969]: Unknown: none
        Stream #0:1000[0x176f]: Unknown: none
        Stream #0:1001[0x6c9]: Unknown: none
        Stream #0:1002[0x3a2]: Unknown: none
        Stream #0:1003[0x4cd]: Unknown: none
        Stream #0:1004[0x825]: Unknown: none
        Stream #0:1005[0x6da]: Unknown: none
        Stream #0:1006[0x285]: Unknown: none
        Stream #0:1007[0x1ba6]: Unknown: none
        Stream #0:1008[0x19df]: Unknown: none
        Stream #0:1009[0x1da9]: Audio: mp3, 0 channels
        Stream #0:1010[0x8d6]: Unknown: none
        Stream #0:1011[0x1cc8]: Unknown: none
        Stream #0:1012[0x513]: Unknown: none
        Stream #0:1013[0x1132]: Unknown: none
        Stream #0:1014[0x3ee]: Unknown: none
        Stream #0:1015[0xaa5]: Unknown: none
        Stream #0:1016[0x1122]: Unknown: none
        Stream #0:1017[0x917]: Unknown: none
        Stream #0:1018[0x1300]: Audio: mp3, 0 channels
        Stream #0:1019[0x1abe]: Unknown: none
        Stream #0:1020[0x1144]: Unknown: none
        Stream #0:1021[0x371]: Unknown: none
        Stream #0:1022[0x1196]: Unknown: none
        Stream #0:1023[0x67b]: Unknown: none
        Stream #0:1024[0x1a68]: Unknown: none
        Stream #0:1025[0x12b9]: Unknown: none
        Stream #0:1026[0xfab]: Audio: mp3, 0 channels
        Stream #0:1027[0xa8b]: Unknown: none
        Stream #0:1028[0x1f8b]: Unknown: none
        Stream #0:1029[0x858]: Unknown: none
        Stream #0:1030[0x3f5]: Unknown: none
        Stream #0:1031[0x13bd]: Unknown: none
        Stream #0:1032[0xc50]: Unknown: none
        Stream #0:1033[0x3a]: Unknown: none
        Stream #0:1034[0x17ed]: Unknown: none
        Stream #0:1035[0x1c1e]: Unknown: none
        Stream #0:1036[0x13d4]: Unknown: none
        Stream #0:1037[0x1884]: Unknown: none
        Stream #0:1038[0x19d7]: Unknown: none
        Stream #0:1039[0x1636]: Unknown: none
        Stream #0:1040[0x1f8d]: Unknown: none
        Stream #0:1041[0x15aa]: Unknown: none
        Stream #0:1042[0x15fb]: Unknown: none
        Stream #0:1043[0x1de6]: Unknown: none
        Stream #0:1044[0x330]: Unknown: none
        Stream #0:1045[0x1ce7]: Unknown: none
        Stream #0:1046[0x268]: Unknown: none
        Stream #0:1047[0x139f]: Unknown: none
        Stream #0:1048[0x1414]: Unknown: none
        Stream #0:1049[0x11b1]: Unknown: none
        Stream #0:1050[0x1efb]: Unknown: none
        Stream #0:1051[0x27d]: Unknown: none
        Stream #0:1052[0x596]: Unknown: none
        Stream #0:1053[0xc89]: Unknown: none
        Stream #0:1054[0x3ac]: Unknown: none
        Stream #0:1055[0x180d]: Unknown: none
        Stream #0:1056[0x1cdb]: Unknown: none
        Stream #0:1057[0x11b]: Audio: mp3, 0 channels
        Stream #0:1058[0xefb]: Unknown: none
        Stream #0:1059[0x1b36]: Unknown: none
        Stream #0:1060[0x1c93]: Unknown: none
        Stream #0:1061[0x19f0]: Unknown: none
        Stream #0:1062[0x174e]: Unknown: none
        Stream #0:1063[0x128]: Unknown: none
        Stream #0:1064[0x1ba3]: Unknown: none
        Stream #0:1065[0x726]: Unknown: none
        Stream #0:1066[0x13d6]: Unknown: none
        Stream #0:1067[0x1361]: Audio: mp3, 0 channels
        Stream #0:1068[0x17dc]: Unknown: none
        Stream #0:1069[0x19fd]: Unknown: none
        Stream #0:1070[0x5e5]: Unknown: none
        Stream #0:1071[0x1d95]: Audio: mp3, 0 channels
        Stream #0:1072[0x1853]: Unknown: none
        Stream #0:1073[0x1dc5]: Unknown: none
        Stream #0:1074[0x2a0]: Unknown: none
        Stream #0:1075[0x1366]: Unknown: none
        Stream #0:1076[0x12f7]: Unknown: none
        Stream #0:1077[0x824]: Unknown: none
        Stream #0:1078[0x1b0d]: Unknown: none
        Stream #0:1079[0x1d0b]: Audio: mp3, 0 channels
        Stream #0:1080[0x5e9]: Unknown: none
        Stream #0:1081[0x271]: Unknown: none
        Stream #0:1082[0x1e2f]: Unknown: none
        Stream #0:1083[0x1812]: Unknown: none
        Stream #0:1084[0x93c]: Unknown: none
        Stream #0:1085[0x15d]: Unknown: none
        Stream #0:1086[0x1a07]: Unknown: none
        Stream #0:1087[0x120a]: Unknown: none
    At least one output file must be specified
    
     
  19. Feb 21, 2013 #4839 of 10413
    murgatroyd

    murgatroyd Don't stop believin'

    25,395
    0
    Jan 5, 2002
    Berkeley CA
    You have multiple S2s? I only have 1 fancy S3; my other TiVos are S1s. :p
     
  20. Feb 21, 2013 #4840 of 10413
    unitron

    unitron Active Member

    16,389
    2
    Apr 28, 2006
    semi-coastal NC
    It helps if you're willing to buy 'em busted and fix 'em.
     

Share This Page